Set as default Homepage|Bookmark
 
 
» » Virus (2019) Malayalam - 720p - WEB-DL - AVC - DD5.1 - ESub-BWT
Advertise

Virus (2019) Malayalam - 720p - WEB-DL - AVC - DD5.1 - ESub-BWT

Author: wroser on 19-07-2019, 16:16
Virus (2019) Malayalam - 720p - WEB-DL - AVC - DD5.1 - ESub-BWT






Format                      : Matroska
Format version              : Version 4
File size                   : 1.63 GiB
Duration                    : 2 h 28 min
Overall bit rate            : 1 565 kb/s
Encoded date                : UTC 2019-07-19 14:21:33
Writing application         : mkvmerge v33.1.0 ('Primrose') 32-bit
Writing library             : libebml v1.3.7 + libmatroska v1.5.0

Video
ID                          : 1
Format                      : AVC
Format/Info                 : Advanced Video Codec
Format profile              : [email protected]
Format settings             : CABAC / 5 Ref Frames
Format settings, CABAC      : Yes
Format settings, Reference  : 5 frames
Codec ID                    : V_MPEG4/ISO/AVC
Duration                    : 2 h 28 min
Bit rate                    : 1 371 kb/s
Width                       : 1 280 pixels
Height                      : 544 pixels
Display aspect ratio        : 2.35:1
Original display aspect rat : 2.35:1
Frame rate mode             : Constant
Frame rate                  : 24.000 FPS
Color space                 : YUV
Chroma subsampling          : 4:2:0
Bit depth                   : 8 bits
Scan type                   : Progressive
Bits/(Pixel*Frame)          : 0.082
Stream size                 : 1.43 GiB (88%)
Language                    : Malayalam
Default                     : Yes
Forced                      : No
Color range                 : Limited
Color primaries             : BT.709
Transfer characteristics    : BT.709
Matrix coefficients         : BT.709

Audio
ID                          : 2
Format                      : E-AC-3
Format/Info                 : Enhanced AC-3
Commercial name             : Dolby Digital Plus
Codec ID                    : A_EAC3
Duration                    : 2 h 28 min
Bit rate mode               : Constant
Bit rate                    : 192 kb/s
Channel(s)                  : 6 channels
Channel layout              : L R C LFE Ls Rs
Sampling rate               : 48.0 kHz
Frame rate                  : 31.250 FPS (1536 SPF)
Compression mode            : Lossy
Stream size                 : 204 MiB (12%)
Language                    : Malayalam
Service kind                : Complete Main
Default                     : Yes
Forced                      : No

Text
ID                          : 3
Format                      : UTF-8
Codec ID                    : S_TEXT/UTF8
Codec ID/Info               : UTF-8 Plain Text
Duration                    : 2 h 23 min
Bit rate                    : 56 b/s
Count of elements           : 1564
Stream size                 : 59.1 KiB (0%)
Language                    : English
Default                     : Yes
Forced                      : No




Virus (2019) Malayalam - 720p - WEB-DL - AVC - DD5.1 - ESub-BWT
Virus (2019) Malayalam - 720p - WEB-DL - AVC - DD5.1 - ESub-BWT
Virus (2019) Malayalam - 720p - WEB-DL - AVC - DD5.1 - ESub-BWT
Virus (2019) Malayalam - 720p - WEB-DL - AVC - DD5.1 - ESub-BWT
Virus (2019) Malayalam - 720p - WEB-DL - AVC - DD5.1 - ESub-BWT
Virus (2019) Malayalam - 720p - WEB-DL - AVC - DD5.1 - ESub-BWT
Virus (2019) Malayalam - 720p - WEB-DL - AVC - DD5.1 - ESub-BWT
Virus (2019) Malayalam - 720p - WEB-DL - AVC - DD5.1 - ESub-BWT


SINGLE DIRECT FAST LINKS


https://www.heroupload.com/b9ea1c45c13cf516/Virus.2019.Malayalam.WEB-DL.720p.AVC.UNTOUCHED.DD5.1.ESub-BWT.mkv


Buy Premium From My Links & Support Me

Теги: Virus

Dear visitor, you are browsing our website as Guest.
We strongly recommend you to register and login to view hidden contents.

Comments:

Add Comments