Set as default Homepage|Bookmark
 
 
» » hippi (2019) Telugu - 720p - WEB-DL - x264 - DD5.1 - ESub-BWT
Advertise

hippi (2019) Telugu - 720p - WEB-DL - x264 - DD5.1 - ESub-BWT

Author: wroser on 19-07-2019, 16:09
hippi (2019) Telugu - 720p - WEB-DL - x264 - DD5.1 - ESub-BWT






Format                      : Matroska
Format version              : Version 4
File size                   : 1.47 GiB
Duration                    : 2 h 20 min
Overall bit rate            : 1 496 kb/s
Encoded date                : UTC 2019-07-19 09:53:23
Writing application         : mkvmerge v33.1.0 ('Primrose') 32-bit
Writing library             : libebml v1.3.7 + libmatroska v1.5.0

Video
ID                          : 1
Format                      : AVC
Format/Info                 : Advanced Video Codec
Format profile              : [email protected]
Format settings             : CABAC / 4 Ref Frames
Format settings, CABAC      : Yes
Format settings, Reference  : 4 frames
Codec ID                    : V_MPEG4/ISO/AVC
Duration                    : 2 h 20 min
Bit rate                    : 1 281 kb/s
Width                       : 1 280 pixels
Height                      : 544 pixels
Display aspect ratio        : 2.35:1
Frame rate mode             : Constant
Frame rate                  : 24.000 FPS
Color space                 : YUV
Chroma subsampling          : 4:2:0
Bit depth                   : 8 bits
Scan type                   : Progressive
Bits/(Pixel*Frame)          : 0.077
Stream size                 : 1.25 GiB (85%)
Writing library             : x264 core 155 r2901 7d0ff22
Encoding settings           : cabac=1 / ref=1 / deblock=1:0:0 / analyse=0x3:0x113 / me=hex / subme=2 / psy=1 / psy_rd=1.00:0.00 / mixed_ref=0 / me_range=16 / chroma_me=1 / trellis=0 / 8x8dct=1 / cqm=0 / deadzone=21,11 / fast_pskip=1 / chroma_qp_offset=0 / threads=12 / lookahead_threads=4 / sliced_threads=0 / nr=0 / decimate=1 / interlaced=0 / bluray_compat=0 / constrained_intra=0 / bframes=3 / b_pyramid=2 / b_adapt=1 / b_bias=0 / direct=1 / weightb=1 / open_gop=0 / weightp=1 / keyint=240 / keyint_min=24 / scenecut=40 / intra_refresh=0 / rc_lookahead=10 / rc=abr / mbtree=1 / bitrate=1281 / ratetol=1.0 / qcomp=0.60 / qpmin=0 / qpmax=69 / qpstep=4 / ip_ratio=1.40 / aq=1:1.00
Language                    : Telugu
Default                     : Yes
Forced                      : No
Color range                 : Limited
Color primaries             : BT.709
Transfer characteristics    : BT.709
Matrix coefficients         : BT.709

Audio
ID                          : 2
Format                      : E-AC-3
Format/Info                 : Enhanced AC-3
Commercial name             : Dolby Digital Plus
Codec ID                    : A_EAC3
Duration                    : 2 h 20 min
Bit rate mode               : Constant
Bit rate                    : 224 kb/s
Channel(s)                  : 6 channels
Channel layout              : L R C LFE Ls Rs
Sampling rate               : 48.0 kHz
Frame rate                  : 31.250 FPS (1536 SPF)
Compression mode            : Lossy
Stream size                 : 225 MiB (15%)
Language                    : Telugu
Service kind                : Complete Main
Default                     : Yes
Forced                      : No

Text
ID                          : 3
Format                      : UTF-8
Codec ID                    : S_TEXT/UTF8
Codec ID/Info               : UTF-8 Plain Text
Duration                    : 2 h 18 min
Bit rate                    : 62 b/s
Count of elements           : 2419
Stream size                 : 63.6 KiB (0%)
Language                    : English
Default                     : No
Forced                      : No



hippi (2019) Telugu - 720p - WEB-DL - x264 - DD5.1 - ESub-BWT
hippi (2019) Telugu - 720p - WEB-DL - x264 - DD5.1 - ESub-BWT
hippi (2019) Telugu - 720p - WEB-DL - x264 - DD5.1 - ESub-BWT
hippi (2019) Telugu - 720p - WEB-DL - x264 - DD5.1 - ESub-BWT
hippi (2019) Telugu - 720p - WEB-DL - x264 - DD5.1 - ESub-BWT
hippi (2019) Telugu - 720p - WEB-DL - x264 - DD5.1 - ESub-BWT
hippi (2019) Telugu - 720p - WEB-DL - x264 - DD5.1 - ESub-BWT
hippi (2019) Telugu - 720p - WEB-DL - x264 - DD5.1 - ESub-BWT
hippi (2019) Telugu - 720p - WEB-DL - x264 - DD5.1 - ESub-BWT
hippi (2019) Telugu - 720p - WEB-DL - x264 - DD5.1 - ESub-BWT

SINGLE DIRECT FAST LINKS



https://www.heroupload.com/602f6feaf85b8bc2/Hippi.2019.Telugu.HDRip.720p.x264.DD5.1.ESub-BWT.mkv



Buy Premium From My Links & Support Me

Теги: hippi

Dear visitor, you are browsing our website as Guest.
We strongly recommend you to register and login to view hidden contents.

Comments:

Add Comments
Reply
  • Group: Guests
  • ICQ:
  • Registration: --
  • Status:
  • 0 Comment
  • 0 Article
^
You there, this is really good post here. Thanks for taking the time to post such valuable information. Quality content is what always gets the visitors coming.
căn hộ sala
Reply
  • Group: Guests
  • ICQ:
  • Registration: --
  • Status:
  • 0 Comment
  • 0 Article
^
I like your post. It is good to see you verbalize from the heart and clarity on this important subject can be easily observed...
Akku Dell Latitude E5420
Reply
  • Group: Guests
  • ICQ:
  • Registration: --
  • Status:
  • 0 Comment
  • 0 Article
^
Hello I am so delighted I located your blog, I really located you by mistake, while I was watching on google for something else, Anyways I am here now and could just like to say thank for a tremendous post and a all round entertaining website. Please do keep up the great work. situs casino
Reply
  • Group: Guests
  • ICQ:
  • Registration: --
  • Status:
  • 0 Comment
  • 0 Article
^
Reply
  • Group: Guests
  • ICQ:
  • Registration: --
  • Status:
  • 0 Comment
  • 0 Article
^
I was reading some of your content on this website and I conceive this internet site is really informative ! Keep on putting up. Sites Like Omegle