Set as default Homepage|Bookmark
 
 
» » House Owner (2019) Telugu - 720p - WEB-DL - AVC - DD5.1 - ESub-BWT
Advertise

House Owner (2019) Telugu - 720p - WEB-DL - AVC - DD5.1 - ESub-BWT

Author: wroser on 11-07-2019, 19:46
House Owner (2019) Telugu - 720p - WEB-DL - AVC - DD5.1 - ESub-BWT






Format                      : Matroska
Format version              : Version 4
File size                   : 1.82 GiB
Duration                    : 1 h 43 min
Overall bit rate            : 2 522 kb/s
Encoded date                : UTC 2019-07-11 19:12:08
Writing application         : mkvmerge v33.1.0 ('Primrose') 32-bit
Writing library             : libebml v1.3.7 + libmatroska v1.5.0

Video
ID                          : 1
Format                      : AVC
Format/Info                 : Advanced Video Codec
Format profile              : [email protected]
Format settings             : CABAC / 4 Ref Frames
Format settings, CABAC      : Yes
Format settings, Reference  : 4 frames
Codec ID                    : V_MPEG4/ISO/AVC
Duration                    : 1 h 43 min
Bit rate                    : 1 900 kb/s
Width                       : 1 280 pixels
Height                      : 544 pixels
Display aspect ratio        : 2.35:1
Frame rate mode             : Constant
Frame rate                  : 25.000 FPS
Color space                 : YUV
Chroma subsampling          : 4:2:0
Bit depth                   : 8 bits
Scan type                   : Progressive
Bits/(Pixel*Frame)          : 0.109
Stream size                 : 1.36 GiB (75%)
Writing library             : x264 core 155 r2901 7d0ff22
Encoding settings           : cabac=1 / ref=1 / deblock=1:0:0 / analyse=0x3:0x113 / me=hex / subme=2 / psy=1 / psy_rd=1.00:0.00 / mixed_ref=0 / me_range=16 / chroma_me=1 / trellis=0 / 8x8dct=1 / cqm=0 / deadzone=21,11 / fast_pskip=1 / chroma_qp_offset=0 / threads=17 / lookahead_threads=4 / sliced_threads=0 / nr=0 / decimate=1 / interlaced=0 / bluray_compat=0 / constrained_intra=0 / bframes=3 / b_pyramid=2 / b_adapt=1 / b_bias=0 / direct=1 / weightb=1 / open_gop=0 / weightp=1 / keyint=250 / keyint_min=25 / scenecut=40 / intra_refresh=0 / rc_lookahead=10 / rc=abr / mbtree=1 / bitrate=1900 / ratetol=1.0 / qcomp=0.60 / qpmin=0 / qpmax=69 / qpstep=4 / vbv_maxrate=17500 / vbv_bufsize=17500 / nal_hrd=none / filler=0 / ip_ratio=1.40 / aq=1:1.00
Language                    : Tamil
Default                     : Yes
Forced                      : No
Color range                 : Limited
Color primaries             : BT.709
Transfer characteristics    : BT.709
Matrix coefficients         : BT.709

Audio
ID                          : 2
Format                      : E-AC-3
Format/Info                 : Enhanced AC-3
Commercial name             : Dolby Digital Plus
Codec ID                    : A_EAC3
Duration                    : 1 h 43 min
Bit rate mode               : Constant
Bit rate                    : 640 kb/s
Channel(s)                  : 6 channels
Channel layout              : L R C LFE Ls Rs
Sampling rate               : 48.0 kHz
Frame rate                  : 31.250 FPS (1536 SPF)
Compression mode            : Lossy
Stream size                 : 472 MiB (25%)
Language                    : Tamil
Service kind                : Complete Main
Default                     : Yes
Forced                      : No

Text
ID                          : 3
Format                      : UTF-8
Codec ID                    : S_TEXT/UTF8
Codec ID/Info               : UTF-8 Plain Text
Duration                    : 1 h 43 min
Bit rate                    : 43 b/s
Count of elements           : 1253
Stream size                 : 33.0 KiB (0%)
Language                    : English
Default                     : Yes
Forced                      : No




House Owner (2019) Telugu - 720p - WEB-DL - AVC - DD5.1 - ESub-BWT
House Owner (2019) Telugu - 720p - WEB-DL - AVC - DD5.1 - ESub-BWT
House Owner (2019) Telugu - 720p - WEB-DL - AVC - DD5.1 - ESub-BWT
House Owner (2019) Telugu - 720p - WEB-DL - AVC - DD5.1 - ESub-BWT
House Owner (2019) Telugu - 720p - WEB-DL - AVC - DD5.1 - ESub-BWT
House Owner (2019) Telugu - 720p - WEB-DL - AVC - DD5.1 - ESub-BWT
SINGLE DIRECT FAST LINKS

https://www.heroupload.com/b332e1395d6a0676/House.Owner.2019.Tamil.WEB-DL.720p.AVC.UNTOUCHED.DD5.1.Esubs-BWT.mkv


Buy Premium From My Links & Support Me

Теги: House

Dear visitor, you are browsing our website as Guest.
We strongly recommend you to register and login to view hidden contents.

Comments:

Add Comments