Set as default Homepage|Bookmark
 
 
» » Alita: Battle Angel (2019) 1080p HDRip x264 [Multi Audio][Hindi+Telugu+Tamil+English]
Advertise

Alita: Battle Angel (2019) 1080p HDRip x264 [Multi Audio][Hindi+Telugu+Tamil+English]

Author: wroser on 10-07-2019, 21:32
Alita: Battle Angel (2019) 1080p HDRip x264 [Multi Audio][Hindi+Telugu+Tamil+English]




Format                      : Matroska
Format version              : Version 4
File size                   : 2.79 GiB
Duration                    : 2 h 2 min
Overall bit rate            : 3 266 kb/s
Encoded date                : UTC 2019-07-10 20:14:25
Writing application         : mkvmerge v33.1.0 ('Primrose') 32-bit
Writing library             : libebml v1.3.7 + libmatroska v1.5.0

Video
ID                          : 1
Format                      : AVC
Format/Info                 : Advanced Video Codec
Format profile              : [email protected]
Format settings             : CABAC / 5 Ref Frames
Format settings, CABAC      : Yes
Format settings, Reference  : 5 frames
Codec ID                    : V_MPEG4/ISO/AVC
Duration                    : 2 h 2 min
Bit rate                    : 2 369 kb/s
Width                       : 1 920 pixels
Height                      : 804 pixels
Display aspect ratio        : 2.40:1
Frame rate mode             : Constant
Frame rate                  : 24.000 FPS
Color space                 : YUV
Chroma subsampling          : 4:2:0
Bit depth                   : 8 bits
Scan type                   : Progressive
Bits/(Pixel*Frame)          : 0.064
Stream size                 : 2.02 GiB (73%)
Writing library             : x264 core 157 r2935 545de2f
Encoding settings           : cabac=1 / ref=5 / deblock=1:-1:-1 / analyse=0x3:0x133 / me=umh / subme=9 / psy=1 / psy_rd=1.00:0.10 / mixed_ref=1 / me_range=24 / chroma_me=1 / trellis=2 / 8x8dct=1 / cqm=0 / deadzone=21,11 / fast_pskip=1 / chroma_qp_offset=-3 / threads=25 / lookahead_threads=2 / sliced_threads=0 / nr=0 / decimate=1 / interlaced=0 / bluray_compat=0 / constrained_intra=0 / bframes=3 / b_pyramid=2 / b_adapt=2 / b_bias=0 / direct=3 / weightb=1 / open_gop=0 / weightp=2 / keyint=250 / keyint_min=23 / scenecut=40 / intra_refresh=0 / rc_lookahead=60 / rc=2pass / mbtree=1 / bitrate=2369 / ratetol=1.0 / qcomp=0.60 / qpmin=0 / qpmax=69 / qpstep=4 / cplxblur=20.0 / qblur=0.5 / ip_ratio=1.40 / aq=1:1.00
Language                    : English
Default                     : Yes
Forced                      : No

Audio #1
ID                          : 2
Format                      : AC-3
Format/Info                 : Audio Coding 3
Commercial name             : Dolby Digital
Codec ID                    : A_AC3
Duration                    : 2 h 1 min
Bit rate mode               : Constant
Bit rate                    : 128 kb/s
Channel(s)                  : 2 channels
Channel layout              : L R
Sampling rate               : 48.0 kHz
Frame rate                  : 31.250 FPS (1536 SPF)
Bit depth                   : 16 bits
Compression mode            : Lossy
Stream size                 : 112 MiB (4%)
Language                    : Telugu
Service kind                : Complete Main
Default                     : No
Forced                      : No

Audio #2
ID                          : 3
Format                      : AC-3
Format/Info                 : Audio Coding 3
Commercial name             : Dolby Digital
Codec ID                    : A_AC3
Duration                    : 2 h 1 min
Bit rate mode               : Constant
Bit rate                    : 128 kb/s
Channel(s)                  : 2 channels
Channel layout              : L R
Sampling rate               : 48.0 kHz
Frame rate                  : 31.250 FPS (1536 SPF)
Bit depth                   : 16 bits
Compression mode            : Lossy
Stream size                 : 112 MiB (4%)
Language                    : Tamil
Service kind                : Complete Main
Default                     : No
Forced                      : No

Audio #3
ID                          : 4
Format                      : AC-3
Format/Info                 : Audio Coding 3
Commercial name             : Dolby Digital
Codec ID                    : A_AC3
Duration                    : 2 h 1 min
Bit rate mode               : Constant
Bit rate                    : 384 kb/s
Channel(s)                  : 6 channels
Channel layout              : L R C LFE Ls Rs
Sampling rate               : 44.1 kHz
Frame rate                  : 28.711 FPS (1536 SPF)
Bit depth                   : 16 bits
Compression mode            : Lossy
Stream size                 : 335 MiB (12%)
Language                    : Hindi
Service kind                : Complete Main
Default                     : Yes
Forced                      : Yes

Audio #4
ID                          : 5
Format                      : AAC LC SBR
Format/Info                 : Advanced Audio Codec Low Complexity with Spectral Band Replication
Commercial name             : HE-AAC
Format settings             : Explicit
Codec ID                    : A_AAC-2
Duration                    : 2 h 1 min
Bit rate                    : 256 kb/s
Channel(s)                  : 6 channels
Channel layout              : C L R Ls Rs LFE
Sampling rate               : 48.0 kHz
Frame rate                  : 23.438 FPS (2048 SPF)
Compression mode            : Lossy
Delay relative to video     : 43 ms
Stream size                 : 223 MiB (8%)
Language                    : English
Default                     : No
Forced                      : No

Text #1
ID                          : 6
Format                      : UTF-8
Codec ID                    : S_TEXT/UTF8
Codec ID/Info               : UTF-8 Plain Text
Duration                    : 1 h 55 min
Bit rate                    : 46 b/s
Count of elements           : 1588
Stream size                 : 39.4 KiB (0%)
Language                    : English
Default                     : Yes
Forced                      : No

Text #2
ID                          : 7
Format                      : UTF-8
Codec ID                    : S_TEXT/UTF8
Codec ID/Info               : UTF-8 Plain Text
Duration                    : 1 h 55 min
Bit rate                    : 41 b/s
Count of elements           : 1347
Stream size                 : 34.9 KiB (0%)
Language                    : English
Default                     : No
Forced                      : No

Menu
00:00:00.000                : en:Chapter 01
00:03:29.626                : en:Chapter 02
00:07:52.680                : en:Chapter 03
00:10:08.982                : en:Chapter 04
00:13:07.702                : en:Chapter 05
00:15:07.738                : en:Chapter 06
00:18:05.539                : en:Chapter 07
00:22:59.707                : en:Chapter 08
00:25:36.321                : en:Chapter 09
00:31:41.893                : en:Chapter 10
00:33:30.209                : en:Chapter 11
00:36:33.809                : en:Chapter 12
00:38:31.885                : en:Chapter 13
00:42:06.473                : en:Chapter 14
00:45:59.204                : en:Chapter 15
00:48:32.439                : en:Chapter 16
00:52:57.995                : en:Chapter 17
00:55:15.339                : en:Chapter 18
01:00:40.746                : en:Chapter 19
01:02:57.548                : en:Chapter 20
01:05:17.770                : en:Chapter 21
01:10:51.477                : en:Chapter 22
01:13:38.268                : en:Chapter 23
01:16:36.194                : en:Chapter 24
01:18:53.205                : en:Chapter 25
01:22:49.274                : en:Chapter 26
01:24:56.316                : en:Chapter 27
01:28:26.192                : en:Chapter 28
01:33:19.527                : en:Chapter 29
01:36:09.738                : en:Chapter 30
01:41:55.667                : en:Chapter 31
01:45:24.417                : en:Chapter 32
01:48:17.464                : en:Chapter 33
01:51:44.628                : en:Chapter 34
01:54:44.640                : en:Chapter 35
01:56:52.476                : en:Chapter 36



SINGLE DIRECT FAST LINKS

https://www.heroupload.com/31a628dd1a8785a8/Alita.Battle.Angel.2019.HDRip.1080p.Original.Audios.Telugu+Tamil+Hindi+English.mkv


700MB LINKS



https://www.heroupload.com/6d3f1c43374bb8e2/Alita.Battle.Angel.2019.HDRip.1080p.Original.Audios.Telugu+Tamil+Hindi+English.part1.rar
https://www.heroupload.com/337d5363a46060ea/Alita.Battle.Angel.2019.HDRip.1080p.Original.Audios.Telugu+Tamil+Hindi+English.part2.rar
https://www.heroupload.com/04850f0e47d23bbf/Alita.Battle.Angel.2019.HDRip.1080p.Original.Audios.Telugu+Tamil+Hindi+English.part3.rar
https://www.heroupload.com/ddca87cc71b02699/Alita.Battle.Angel.2019.HDRip.1080p.Original.Audios.Telugu+Tamil+Hindi+English.part4.rar
https://www.heroupload.com/7a6494d8272c4f6b/Alita.Battle.Angel.2019.HDRip.1080p.Original.Audios.Telugu+Tamil+Hindi+English.part5.rar


Buy Premium From My Links & Support Me

Теги: Alita

Dear visitor, you are browsing our website as Guest.
We strongly recommend you to register and login to view hidden contents.

Comments:

Add Comments