Set as default Homepage|Bookmark
 
 
» » Dumdaar Khiladi - Hello Guru Prema Kosame (2019) Hindi 1080p WEB-HD AVC AAC-Aditya
Advertise

Dumdaar Khiladi - Hello Guru Prema Kosame (2019) Hindi 1080p WEB-HD AVC AAC-Aditya

Author: wroser on 7-07-2019, 20:26
Dumdaar Khiladi - Hello Guru Prema Kosame (2019) Hindi 1080p WEB-HD AVC AAC-Aditya




Format                                   : MPEG-4
Format profile                           : Base Media
Codec ID                                 : isom (isom/iso2/avc1/mp41)
File size                                : 2.76 GiB
Duration                                 : 2 h 19 min
Overall bit rate                         : 2 838 kb/s
Writing application                      : Lavf58.9.100

Video
ID                                       : 1
Format                                   : AVC
Format/Info                              : Advanced Video Codec
Format profile                           : [email protected]
Format settings                          : CABAC / 3 Ref Frames
Format settings, CABAC                   : Yes
Format settings, RefFrames               : 3 frames
Codec ID                                 : avc1
Codec ID/Info                            : Advanced Video Coding
Duration                                 : 2 h 19 min
Bit rate                                 : 2 705 kb/s
Width                                    : 1 920 pixels
Height                                   : 1 080 pixels
Display aspect ratio                     : 16:9
Frame rate mode                          : Constant
Frame rate                               : 24.000 FPS
Color space                              : YUV
Chroma subsampling                       : 4:2:0
Bit depth                                : 8 bits
Scan type                                : Progressive
Bits/(Pixel*Frame)                       : 0.054
Stream size                              : 2.63 GiB (95%)
Color range                              : Limited
Color primaries                          : BT.709
Transfer characteristics                 : BT.709
Matrix coefficients                      : BT.709
Codec configuration box                  : avcC

Audio
ID                                       : 2
Format                                   : AAC LC
Format/Info                              : Advanced Audio Codec Low Complexity
Codec ID                                 : mp4a-40-2
Duration                                 : 2 h 19 min
Bit rate mode                            : Constant
Bit rate                                 : 128 kb/s
Channel(s)                               : 2 channels
Channel layout                           : L R
Sampling rate                            : 44.1 kHz
Frame rate                               : 43.066 FPS (1024 SPF)
Compression mode                         : Lossy
Stream size                              : 128 MiB (5%)
Language                                 : English
Default                                  : Yes
Alternate group                          : 1



Dumdaar Khiladi - Hello Guru Prema Kosame (2019) Hindi 1080p WEB-HD AVC AAC-Aditya
Dumdaar Khiladi - Hello Guru Prema Kosame (2019) Hindi 1080p WEB-HD AVC AAC-Aditya
Dumdaar Khiladi - Hello Guru Prema Kosame (2019) Hindi 1080p WEB-HD AVC AAC-Aditya
Dumdaar Khiladi - Hello Guru Prema Kosame (2019) Hindi 1080p WEB-HD AVC AAC-Aditya
Dumdaar Khiladi - Hello Guru Prema Kosame (2019) Hindi 1080p WEB-HD AVC AAC-Aditya
Dumdaar Khiladi - Hello Guru Prema Kosame (2019) Hindi 1080p WEB-HD AVC AAC-Aditya
Dumdaar Khiladi - Hello Guru Prema Kosame (2019) Hindi 1080p WEB-HD AVC AAC-Aditya


SINGLE DIRECT FAST LINKS

https://www.heroupload.com/7eeb5b3285688ed5/Dumdaar.Khiladi.2019.Hindi.1080p.WEB-HD.AVC.AAC-Aditya.mp4


700MB LINKS



https://www.heroupload.com/2680098ae4f5cd89/Dumdaar.Khiladi.2019.Hindi.1080p.WEB-HD.AVC.AAC-Aditya.part1.rar
https://www.heroupload.com/e5622cf688ef89c9/Dumdaar.Khiladi.2019.Hindi.1080p.WEB-HD.AVC.AAC-Aditya.part2.rar
https://www.heroupload.com/817c335f9e500242/Dumdaar.Khiladi.2019.Hindi.1080p.WEB-HD.AVC.AAC-Aditya.part3.rar
https://www.heroupload.com/90694bbff21e5e63/Dumdaar.Khiladi.2019.Hindi.1080p.WEB-HD.AVC.AAC-Aditya.part4.rar
https://www.heroupload.com/9f0633356dce6e8c/Dumdaar.Khiladi.2019.Hindi.1080p.WEB-HD.AVC.AAC-Aditya.part5.rar


Buy Premium From My Links & Support Me

Теги: Dumdaar

Dear visitor, you are browsing our website as Guest.
We strongly recommend you to register and login to view hidden contents.

Comments:

Add Comments