Set as default Homepage|Bookmark
 
 
» » Dumdaar Khiladi - Hello Guru Prema Kosame (2019) Hindi 720p WEB-HD AVC AAC-Aditya
Advertise

Dumdaar Khiladi - Hello Guru Prema Kosame (2019) Hindi 720p WEB-HD AVC AAC-Aditya

Author: wroser on 7-07-2019, 20:24
Dumdaar Khiladi - Hello Guru Prema Kosame (2019) Hindi 720p WEB-HD AVC AAC-Aditya




Format                                   : MPEG-4
Format profile                           : Base Media / Version 2
Codec ID                                 : mp42 (isom/mp42)
File size                                : 1.54 GiB
Duration                                 : 2 h 19 min
Overall bit rate mode                    : Variable
Overall bit rate                         : 1 578 kb/s
Encoded date                             : UTC 2019-07-06 16:10:55
Tagged date                              : UTC 2019-07-06 16:10:55
gsst                                     : 0
gstd                                     : 8365220

Video
ID                                       : 1
Format                                   : AVC
Format/Info                              : Advanced Video Codec
Format profile                           : [email protected]
Format settings                          : CABAC / 3 Ref Frames
Format settings, CABAC                   : Yes
Format settings, RefFrames               : 3 frames
Codec ID                                 : avc1
Codec ID/Info                            : Advanced Video Coding
Duration                                 : 2 h 19 min
Bit rate                                 : 1 447 kb/s
Width                                    : 1 280 pixels
Height                                   : 720 pixels
Display aspect ratio                     : 16:9
Frame rate mode                          : Constant
Frame rate                               : 24.000 FPS
Color space                              : YUV
Chroma subsampling                       : 4:2:0
Bit depth                                : 8 bits
Scan type                                : Progressive
Bits/(Pixel*Frame)                       : 0.065
Stream size                              : 1.41 GiB (92%)
Title                                    : ISO Media file produced by Google Inc. Created on: 07/06/2019.
Encoded date                             : UTC 2019-07-06 16:10:55
Tagged date                              : UTC 2019-07-06 16:10:55
Color range                              : Limited
Color primaries                          : BT.709
Transfer characteristics                 : BT.709
Matrix coefficients                      : BT.709
Codec configuration box                  : avcC

Audio
ID                                       : 2
Format                                   : AAC LC
Format/Info                              : Advanced Audio Codec Low Complexity
Codec ID                                 : mp4a-40-2
Duration                                 : 2 h 19 min
Bit rate mode                            : Variable
Bit rate                                 : 128 kb/s
Channel(s)                               : 2 channels
Channel layout                           : L R
Sampling rate                            : 44.1 kHz
Frame rate                               : 43.066 FPS (1024 SPF)
Compression mode                         : Lossy
Stream size                              : 128 MiB (8%)
Title                                    : ISO Media file produced by Google Inc. Created on: 07/06/2019.
Language                                 : English
Encoded date                             : UTC 2019-07-06 16:10:55
Tagged date                              : UTC 2019-07-06 16:10:55



Dumdaar Khiladi - Hello Guru Prema Kosame (2019) Hindi 720p WEB-HD AVC AAC-Aditya
Dumdaar Khiladi - Hello Guru Prema Kosame (2019) Hindi 720p WEB-HD AVC AAC-Aditya
Dumdaar Khiladi - Hello Guru Prema Kosame (2019) Hindi 720p WEB-HD AVC AAC-Aditya
Dumdaar Khiladi - Hello Guru Prema Kosame (2019) Hindi 720p WEB-HD AVC AAC-Aditya
Dumdaar Khiladi - Hello Guru Prema Kosame (2019) Hindi 720p WEB-HD AVC AAC-Aditya
Dumdaar Khiladi - Hello Guru Prema Kosame (2019) Hindi 720p WEB-HD AVC AAC-Aditya
Dumdaar Khiladi - Hello Guru Prema Kosame (2019) Hindi 720p WEB-HD AVC AAC-Aditya

SINGLE DIRECT FAST LINKS


https://www.heroupload.com/f64afa9c5e76af82/Dumdaar.Khiladi.2019.Hindi.720p.WEB-HD.AVC.AAC-Aditya.mp4




Buy Premium From My Links & Support Me

Теги: Dumdaar

Dear visitor, you are browsing our website as Guest.
We strongly recommend you to register and login to view hidden contents.

Comments:

Add Comments