Set as default Homepage|Bookmark
 
 
» » Spider-Man: Far from Home (2019) 720p HD-CAMRip x264 [Hindi+Telugu+Tamil+English]
Advertise

Spider-Man: Far from Home (2019) 720p HD-CAMRip x264 [Hindi+Telugu+Tamil+English]

Author: wroser on 7-07-2019, 20:12
Spider-Man: Far from Home (2019) 720p HD-CAMRip x264 [Hindi+Telugu+Tamil+English]



Spider-Man: Far from Home (2019) 720p HD-CAMRip x264 [Multi Audios][Hindi+Telugu+Tamil+English]
Format                      : Matroska
Format version              : Version 4
File size                   : 1.00 GiB
Duration                    : 1 h 59 min
Overall bit rate mode       : Variable
Overall bit rate            : 1 198 kb/s
Encoded date                : UTC 2019-07-07 19:49:40
Writing application         : mkvmerge v33.1.0 ('Primrose') 32-bit
Writing library             : libebml v1.3.7 + libmatroska v1.5.0

Video
ID                          : 1
Format                      : AVC
Format/Info                 : Advanced Video Codec
Format profile              : [email protected]
Format settings             : CABAC / 4 Ref Frames
Format settings, CABAC      : Yes
Format settings, Reference  : 4 frames
Codec ID                    : V_MPEG4/ISO/AVC
Duration                    : 1 h 59 min
Bit rate                    : 822 kb/s
Width                       : 1 280 pixels
Height                      : 536 pixels
Display aspect ratio        : 2.40:1
Frame rate mode             : Constant
Frame rate                  : 30.000 FPS
Color space                 : YUV
Chroma subsampling          : 4:2:0
Bit depth                   : 8 bits
Scan type                   : Progressive
Bits/(Pixel*Frame)          : 0.040
Stream size                 : 709 MiB (69%)
Writing library             : x264 core 157 r2935 545de2f
Encoding settings           : cabac=1 / ref=1 / deblock=1:0:0 / analyse=0x3:0x113 / me=hex / subme=2 / psy=1 / psy_rd=1.00:0.00 / mixed_ref=0 / me_range=16 / chroma_me=1 / trellis=0 / 8x8dct=1 / cqm=0 / deadzone=21,11 / fast_pskip=1 / chroma_qp_offset=0 / threads=17 / lookahead_threads=4 / sliced_threads=0 / nr=0 / decimate=1 / interlaced=0 / bluray_compat=0 / constrained_intra=0 / bframes=3 / b_pyramid=2 / b_adapt=1 / b_bias=0 / direct=1 / weightb=1 / open_gop=0 / weightp=1 / keyint=300 / keyint_min=30 / scenecut=40 / intra_refresh=0 / rc_lookahead=10 / rc=abr / mbtree=1 / bitrate=822 / ratetol=1.0 / qcomp=0.60 / qpmin=0 / qpmax=69 / qpstep=4 / ip_ratio=1.40 / aq=1:1.00
Language                    : English
Default                     : Yes
Forced                      : No

Audio #1
ID                          : 2
Format                      : MPEG Audio
Format version              : Version 1
Format profile              : Layer 3
Format settings             : Joint stereo / MS Stereo
Codec ID                    : A_MPEG/L3
Codec ID/Hint               : MP3
Duration                    : 1 h 59 min
Bit rate mode               : Variable
Bit rate                    : 86.3 kb/s
Nominal bit rate            : 96.0 kb/s
Channel(s)                  : 2 channels
Sampling rate               : 48.0 kHz
Frame rate                  : 41.667 FPS (1152 SPF)
Compression mode            : Lossy
Stream size                 : 73.9 MiB (7%)
Writing library             : LAME3.99r
Encoding settings           : -m j -V 4 -q 3 -lowpass 15.1 --abr 96
Language                    : Telugu
Default                     : No
Forced                      : No

Audio #2
ID                          : 3
Format                      : MPEG Audio
Format version              : Version 1
Format profile              : Layer 3
Format settings             : Joint stereo / MS Stereo
Codec ID                    : A_MPEG/L3
Codec ID/Hint               : MP3
Duration                    : 1 h 59 min
Bit rate mode               : Variable
Bit rate                    : 89.8 kb/s
Nominal bit rate            : 96.0 kb/s
Channel(s)                  : 2 channels
Sampling rate               : 48.0 kHz
Frame rate                  : 41.667 FPS (1152 SPF)
Compression mode            : Lossy
Stream size                 : 77.0 MiB (7%)
Writing library             : LAME3.99r
Encoding settings           : -m j -V 4 -q 3 -lowpass 15.1 --abr 96
Language                    : Tamil
Default                     : No
Forced                      : No

Audio #3
ID                          : 4
Format                      : MPEG Audio
Format version              : Version 1
Format profile              : Layer 3
Format settings             : Joint stereo
Codec ID                    : A_MPEG/L3
Codec ID/Hint               : MP3
Duration                    : 1 h 59 min
Bit rate mode               : Variable
Bit rate                    : 90.9 kb/s
Nominal bit rate            : 96.0 kb/s
Channel(s)                  : 2 channels
Sampling rate               : 48.0 kHz
Frame rate                  : 41.667 FPS (1152 SPF)
Compression mode            : Lossy
Stream size                 : 77.9 MiB (8%)
Writing library             : LAME3.99r
Encoding settings           : -m j -V 4 -q 3 -lowpass 15.1 --abr 96
Language                    : Hindi
Default                     : Yes
Forced                      : Yes

Audio #4
ID                          : 5
Format                      : MPEG Audio
Format version              : Version 1
Format profile              : Layer 3
Format settings             : Joint stereo / MS Stereo
Codec ID                    : A_MPEG/L3
Codec ID/Hint               : MP3
Duration                    : 1 h 59 min
Bit rate mode               : Variable
Bit rate                    : 96.0 kb/s
Channel(s)                  : 2 channels
Sampling rate               : 48.0 kHz
Frame rate                  : 41.667 FPS (1152 SPF)
Compression mode            : Lossy
Stream size                 : 85.3 MiB (8%)
Writing library             : LAME3.99r
Encoding settings           : -m j -V 4 -q 3 -lowpass 15.1 --abr 96
Language                    : English
Default                     : No
Forced                      : No



Spider-Man: Far from Home (2019) 720p HD-CAMRip x264 [Hindi+Telugu+Tamil+English]
Spider-Man: Far from Home (2019) 720p HD-CAMRip x264 [Hindi+Telugu+Tamil+English]
Spider-Man: Far from Home (2019) 720p HD-CAMRip x264 [Hindi+Telugu+Tamil+English]
Spider-Man: Far from Home (2019) 720p HD-CAMRip x264 [Hindi+Telugu+Tamil+English]
Spider-Man: Far from Home (2019) 720p HD-CAMRip x264 [Hindi+Telugu+Tamil+English]
Spider-Man: Far from Home (2019) 720p HD-CAMRip x264 [Hindi+Telugu+Tamil+English]
Spider-Man: Far from Home (2019) 720p HD-CAMRip x264 [Hindi+Telugu+Tamil+English]

SINGLE DIRECT FAST LINKS


https://www.heroupload.com/17f50b2ac9e25e23/Spider-Man.Far.from.Home.2019.New.HDCAM.720p.x264.Telugu+Tamil+Hindi+English.mkv



Buy Premium From My Links & Support Me

Теги: Spider

Dear visitor, you are browsing our website as Guest.
We strongly recommend you to register and login to view hidden contents.

Comments:

Add Comments