Set as default Homepage|Bookmark
 
 
» » Maragadha Naanayam (2017) 720p UNCUT HDRip x264 E-Subs [Dual Audio][Hindi+Tamil] BHD
Advertise

Maragadha Naanayam (2017) 720p UNCUT HDRip x264 E-Subs [Dual Audio][Hindi+Tamil] BHD

Author: wroser on 7-07-2019, 00:08
Maragadha Naanayam (2017) 720p UNCUT HDRip x264 E-Subs [Dual Audio][Hindi+Tamil] BHD






Video
ID : 1
Format : AVC
Format/Info : Advanced Video Codec
Format profile : [email protected]
Format settings : CABAC / 5 Ref Frames
Format settings, CABAC : Yes
Format settings, RefFrames : 5 frames
Codec ID : V_MPEG4/ISO/AVC
Duration : 2 h 11 min
Bit rate : 1 350 kb/s
Width : 1 280 pixels
Height : 580 pixels
Display aspect ratio : 2.2:1
Frame rate mode : Constant
Frame rate : 24.000 FPS
Color space : YUV
Chroma subsampling : 4:2:0
Bit depth : 8 bits
Scan type : Progressive
Bits/(Pixel*Frame) : 0.076
Stream size : 1.24 GiB (81%)
Writing library : x264 core
Default : Yes
Forced : No
Color range : Limited
Color primaries : BT.709
Transfer characteristics : BT.709
Matrix coefficients : BT.709


Audio #1
ID : 2
Format : AC-3
Format/Info : Audio Coding 3
Codec ID : A_AC3
Duration : 2 h 11 min
Bit rate mode : Constant
Bit rate : 192 kb/s
Channel(s) : 2 channels
Channel positions : Front: L R
Sampling rate : 48.0 kHz
Frame rate : 31.250 FPS (1536 SPF)
Bit depth : 16 bits
Compression mode : Lossy
Delay relative to video : 31 ms
Stream size : 180 MiB (11%)
Language : Hindi
Service kind : Complete Main
Default : Yes
Forced : Yes

Audio #2
ID : 3
Format : AAC
Format/Info : Advanced Audio Codec
Format profile : LC
Codec ID : A_AAC-2
Duration : 2 h 11 min
Bit rate : 128 kb/s
Channel(s) : 2 channels
Channel positions : Front: L R
Sampling rate : 44.1 kHz
Frame rate : 43.066 FPS (1024 SPF)
Compression mode : Lossy
Delay relative to video : 16 ms
Stream size : 120 MiB (8%)
Language : Tamil
Default : No
Forced : No


Text
ID : 4
Format : UTF-8
Codec ID : S_TEXT/UTF8
Codec ID/Info : UTF-8 Plain Text
Duration : 2 h 10 min
Bit rate : 72 b/s
Count of elements : 2203
Stream size : 69.3 KiB (0%)
Language : English
Default : Yes
Forced : No



Maragadha Naanayam (2017) 720p UNCUT HDRip x264 E-Subs [Dual Audio][Hindi+Tamil] BHD
Maragadha Naanayam (2017) 720p UNCUT HDRip x264 E-Subs [Dual Audio][Hindi+Tamil] BHD
Maragadha Naanayam (2017) 720p UNCUT HDRip x264 E-Subs [Dual Audio][Hindi+Tamil] BHD
Maragadha Naanayam (2017) 720p UNCUT HDRip x264 E-Subs [Dual Audio][Hindi+Tamil] BHD

SINGLE DIRECT FAST LINKS



https://www.heroupload.com/fa8180b8ae5eaefe/Maragadha.Naanayam.2017.720p.UNCUT.HDRip.x264.ESubs.Hindi.DD2.0+_Tamil.DD2.0-BHD.mkv


Buy Premium From My Links & Support Me

Теги: Maragadha

Dear visitor, you are browsing our website as Guest.
We strongly recommend you to register and login to view hidden contents.

Comments:

Add Comments