Set as default Homepage|Bookmark
 
 
» » Traffic (2011) 720p UNCUT HDRip x264 [Dual Audio][Hindi+Malayalam] - BHD
Advertise

Traffic (2011) 720p UNCUT HDRip x264 [Dual Audio][Hindi+Malayalam] - BHD

Author: wroser on 7-07-2019, 00:02
Traffic (2011) 720p UNCUT HDRip x264 [Dual Audio][Hindi+Malayalam] - BHD





Format                      : Matroska
Format version              : Version 4
File size                   : 1.30 GiB
Duration                    : 1 h 56 min
Overall bit rate            : 1 598 kb/s
Encoded date                : UTC 2019-07-03 19:03:26
Writing application         : mkvmerge v20.0.0 ('I Am The Sun') 64-bit
Writing library             : libebml v1.3.5 + libmatroska v1.4.8
Attachments                 : x35y09.jpg

Video
ID                          : 1
Format                      : AVC
Format/Info                 : Advanced Video Codec
Format profile              : [email protected]
Format settings             : CABAC / 5 Ref Frames
Format settings, CABAC      : Yes
Format settings, Reference  : 5 frames
Codec ID                    : V_MPEG4/ISO/AVC
Duration                    : 1 h 56 min
Bit rate                    : 1 350 kb/s
Width                       : 1 280 pixels
Height                      : 608 pixels
Display aspect ratio        : 2.105
Frame rate mode             : Constant
Frame rate                  : 25.000 FPS
Color space                 : YUV
Chroma subsampling          : 4:2:0
Bit depth                   : 8 bits
Scan type                   : Progressive
Bits/(Pixel*Frame)          : 0.069
Stream size                 : 1.09 GiB (84%)
Writing library             : x264 core 148 r2708 86b7198
Encoding settings           : cabac=1 / ref=5 / deblock=1:0:0 / analyse=0x3:0x113 / me=hex / subme=7 / psy=1 / psy_rd=1.00:0.00 / mixed_ref=1 / me_range=16 / chroma_me=1 / trellis=1 / 8x8dct=1 / cqm=0 / deadzone=21,11 / fast_pskip=1 / chroma_qp_offset=-2 / threads=19 / lookahead_threads=3 / sliced_threads=0 / nr=0 / decimate=1 / interlaced=0 / bluray_compat=0 / constrained_intra=0 / bframes=5 / b_pyramid=2 / b_adapt=1 / b_bias=0 / direct=1 / weightb=1 / open_gop=0 / weightp=2 / keyint=250 / keyint_min=25 / scenecut=40 / intra_refresh=0 / rc_lookahead=40 / rc=abr / mbtree=1 / bitrate=1350 / ratetol=1.0 / qcomp=0.60 / qpmin=0 / qpmax=69 / qpstep=4 / vbv_maxrate=17500 / vbv_bufsize=17500 / nal_hrd=none / filler=0 / ip_ratio=1.40 / aq=1:1.00
Default                     : Yes
Forced                      : No
Color range                 : Limited
Color primaries             : BT.709
Transfer characteristics    : BT.709
Matrix coefficients         : BT.709

Audio #1
ID                          : 2
Format                      : AAC LC
Format/Info                 : Advanced Audio Codec Low Complexity
Codec ID                    : A_AAC-2
Duration                    : 1 h 56 min
Bit rate                    : 192 kb/s
Channel(s)                  : 2 channels
Channel layout              : L R
Sampling rate               : 48.0 kHz
Frame rate                  : 46.875 FPS (1024 SPF)
Compression mode            : Lossy
Delay relative to video     : -21 ms
Stream size                 : 158 MiB (12%)
Language                    : Hindi
Default                     : Yes
Forced                      : Yes

Audio #2
ID                          : 3
Format                      : AAC LC
Format/Info                 : Advanced Audio Codec Low Complexity
Codec ID                    : A_AAC-2
Duration                    : 1 h 56 min
Bit rate                    : 61.4 kb/s
Channel(s)                  : 2 channels
Channel layout              : L R
Sampling rate               : 48.0 kHz
Frame rate                  : 46.875 FPS (1024 SPF)
Compression mode            : Lossy
Delay relative to video     : -21 ms
Stream size                 : 51.2 MiB (4%)
Language                    : Malayalam
Default                     : No
Forced                      : No




Traffic (2011) 720p UNCUT HDRip x264 [Dual Audio][Hindi+Malayalam] - BHD
Traffic (2011) 720p UNCUT HDRip x264 [Dual Audio][Hindi+Malayalam] - BHD
Traffic (2011) 720p UNCUT HDRip x264 [Dual Audio][Hindi+Malayalam] - BHD
Traffic (2011) 720p UNCUT HDRip x264 [Dual Audio][Hindi+Malayalam] - BHD
Traffic (2011) 720p UNCUT HDRip x264 [Dual Audio][Hindi+Malayalam] - BHD


SINGLE DIRECT FAST LINKS



https://www.heroupload.com/5edcf4fa61298d67/Traffic.2011.720p.UNCUT.WebRip.x264.Hindi+Malayalam-BHD.mkv


Buy Premium From My Links & Support Me

Теги: Traffic

Dear visitor, you are browsing our website as Guest.
We strongly recommend you to register and login to view hidden contents.

Comments:

Add Comments