Set as default Homepage|Bookmark
 
 
» » Kumbalangi Nights (2019) Malayalam - 1080p - WEB-DL - AVC - UNTOUCHED - AC3 - ESub-BW
Advertise

Kumbalangi Nights (2019) Malayalam - 1080p - WEB-DL - AVC - UNTOUCHED - AC3 - ESub-BW

Author: wroser on 4-07-2019, 09:28
Kumbalangi Nights (2019) Malayalam - 1080p - WEB-DL - AVC - UNTOUCHED - AC3 - ESub-BW




Format                      : Matroska
Format version              : Version 4
File size                   : 5.00 GiB
Duration                    : 2 h 13 min
Overall bit rate            : 5 346 kb/s
Encoded date                : UTC 2019-07-03 03:11:15
Writing application         : mkvmerge v30.1.0 ('Forever And More') 64-bit
Writing library             : libebml v1.3.6 + libmatroska v1.4.9

Video
ID                          : 1
Format                      : AVC
Format/Info                 : Advanced Video Codec
Format profile              : [email protected]
Format settings             : CABAC / 4 Ref Frames
Format settings, CABAC      : Yes
Format settings, Reference  : 4 frames
Codec ID                    : V_MPEG4/ISO/AVC
Duration                    : 2 h 13 min
Bit rate                    : 5 120 kb/s
Width                       : 1 920 pixels
Height                      : 1 080 pixels
Display aspect ratio        : 16:9
Frame rate mode             : Constant
Frame rate                  : 24.000 FPS
Color space                 : YUV
Chroma subsampling          : 4:2:0
Bit depth                   : 8 bits
Scan type                   : Progressive
Bits/(Pixel*Frame)          : 0.103
Stream size                 : 4.79 GiB (96%)
Default                     : Yes
Forced                      : No
Color range                 : Limited
Color primaries             : BT.709
Transfer characteristics    : BT.709
Matrix coefficients         : BT.709

Audio
ID                          : 2
Format                      : E-AC-3
Format/Info                 : Enhanced AC-3
Commercial name             : Dolby Digital Plus
Codec ID                    : A_EAC3
Duration                    : 2 h 13 min
Bit rate mode               : Constant
Bit rate                    : 224 kb/s
Channel(s)                  : 2 channels
Channel layout              : L R
Sampling rate               : 48.0 kHz
Frame rate                  : 31.250 FPS (1536 SPF)
Compression mode            : Lossy
Stream size                 : 214 MiB (4%)
Service kind                : Complete Main
Default                     : Yes
Forced                      : No

Text
ID                          : 3
Format                      : UTF-8
Codec ID                    : S_TEXT/UTF8
Codec ID/Info               : UTF-8 Plain Text
Duration                    : 2 h 9 min
Bit rate                    : 34 b/s
Count of elements           : 1105
Stream size                 : 32.8 KiB (0%)
Title                       : SDH
Language                    : English
Default                     : No
Forced                      : No



Kumbalangi Nights (2019) Malayalam - 1080p - WEB-DL - AVC - UNTOUCHED - AC3 - ESub-BW
Kumbalangi Nights (2019) Malayalam - 1080p - WEB-DL - AVC - UNTOUCHED - AC3 - ESub-BW
Kumbalangi Nights (2019) Malayalam - 1080p - WEB-DL - AVC - UNTOUCHED - AC3 - ESub-BW
Kumbalangi Nights (2019) Malayalam - 1080p - WEB-DL - AVC - UNTOUCHED - AC3 - ESub-BW
Kumbalangi Nights (2019) Malayalam - 1080p - WEB-DL - AVC - UNTOUCHED - AC3 - ESub-BW
Kumbalangi Nights (2019) Malayalam - 1080p - WEB-DL - AVC - UNTOUCHED - AC3 - ESub-BW
Kumbalangi Nights (2019) Malayalam - 1080p - WEB-DL - AVC - UNTOUCHED - AC3 - ESub-BW


SINGLE DIRECT FAST LINKS

https://www.heroupload.com/b30f40e7ecc729cc/Kumbalangi.Nights.2019.Malayalam.WEB-DL.1080p.AVC.UNTOUCHED.ESub-BWT.mkv


1GB LINKS



https://www.heroupload.com/1f66392ecd888aa0/Kumbalangi.Nights.2019.Malayalam.WEB-DL.1080p.AVC.UNTOUCHED.ESub-BWT.part1.rar
https://www.heroupload.com/474cf95ec053930c/Kumbalangi.Nights.2019.Malayalam.WEB-DL.1080p.AVC.UNTOUCHED.ESub-BWT.part2.rar
https://www.heroupload.com/fbfcf451df28569a/Kumbalangi.Nights.2019.Malayalam.WEB-DL.1080p.AVC.UNTOUCHED.ESub-BWT.part3.rar
https://www.heroupload.com/ed76735ee0d348c9/Kumbalangi.Nights.2019.Malayalam.WEB-DL.1080p.AVC.UNTOUCHED.ESub-BWT.part4.rar
https://www.heroupload.com/57184d26f8de3359/Kumbalangi.Nights.2019.Malayalam.WEB-DL.1080p.AVC.UNTOUCHED.ESub-BWT.part5.rar



Buy Premium From My Links & Support Me

Теги: Kumbalangi

Dear visitor, you are browsing our website as Guest.
We strongly recommend you to register and login to view hidden contents.

Comments:

Add Comments