Set as default Homepage|Bookmark
 
 
» » Kumbalangi Nights (2019) Malayalam - 720p - WEB-DL - AVC - UNTOUCHED - AC3 - ESub-BWT
Advertise

Kumbalangi Nights (2019) Malayalam - 720p - WEB-DL - AVC - UNTOUCHED - AC3 - ESub-BWT

Author: wroser on 4-07-2019, 09:07
Kumbalangi Nights (2019) Malayalam - 720p - WEB-DL - AVC - UNTOUCHED - AC3 - ESub-BWT




Format                      : Matroska
Format version              : Version 4
File size                   : 1.22 GiB
Duration                    : 2 h 13 min
Overall bit rate            : 1 301 kb/s
Encoded date                : UTC 2019-07-04 06:44:20
Writing application         : mkvmerge v33.1.0 ('Primrose') 32-bit
Writing library             : libebml v1.3.7 + libmatroska v1.5.0

Video
ID                          : 1
Format                      : AVC
Format/Info                 : Advanced Video Codec
Format profile              : [email protected]
Format settings             : CABAC / 5 Ref Frames
Format settings, CABAC      : Yes
Format settings, Reference  : 5 frames
Codec ID                    : V_MPEG4/ISO/AVC
Duration                    : 2 h 13 min
Bit rate                    : 1 075 kb/s
Width                       : 1 280 pixels
Height                      : 720 pixels
Display aspect ratio        : 16:9
Frame rate mode             : Constant
Frame rate                  : 24.000 FPS
Color space                 : YUV
Chroma subsampling          : 4:2:0
Bit depth                   : 8 bits
Scan type                   : Progressive
Bits/(Pixel*Frame)          : 0.049
Stream size                 : 1.01 GiB (83%)
Language                    : Malayalam
Default                     : Yes
Forced                      : No
Color range                 : Limited
Color primaries             : BT.709
Transfer characteristics    : BT.709
Matrix coefficients         : BT.709

Audio
ID                          : 2
Format                      : E-AC-3
Format/Info                 : Enhanced AC-3
Commercial name             : Dolby Digital Plus
Codec ID                    : A_EAC3
Duration                    : 2 h 13 min
Bit rate mode               : Constant
Bit rate                    : 224 kb/s
Channel(s)                  : 2 channels
Channel layout              : L R
Sampling rate               : 48.0 kHz
Frame rate                  : 31.250 FPS (1536 SPF)
Compression mode            : Lossy
Stream size                 : 214 MiB (17%)
Language                    : Malayalam
Service kind                : Complete Main
Default                     : Yes
Forced                      : No

Text
ID                          : 3
Format                      : UTF-8
Codec ID                    : S_TEXT/UTF8
Codec ID/Info               : UTF-8 Plain Text
Duration                    : 2 h 9 min
Bit rate                    : 34 b/s
Count of elements           : 1105
Stream size                 : 32.8 KiB (0%)
Language                    : English
Default                     : No
Forced                      : No



Kumbalangi Nights (2019) Malayalam - 720p - WEB-DL - AVC - UNTOUCHED - AC3 - ESub-BWT
Kumbalangi Nights (2019) Malayalam - 720p - WEB-DL - AVC - UNTOUCHED - AC3 - ESub-BWT
Kumbalangi Nights (2019) Malayalam - 720p - WEB-DL - AVC - UNTOUCHED - AC3 - ESub-BWT
Kumbalangi Nights (2019) Malayalam - 720p - WEB-DL - AVC - UNTOUCHED - AC3 - ESub-BWT
Kumbalangi Nights (2019) Malayalam - 720p - WEB-DL - AVC - UNTOUCHED - AC3 - ESub-BWT
Kumbalangi Nights (2019) Malayalam - 720p - WEB-DL - AVC - UNTOUCHED - AC3 - ESub-BWT
Kumbalangi Nights (2019) Malayalam - 720p - WEB-DL - AVC - UNTOUCHED - AC3 - ESub-BWT

SINGLE DIRECT FAST LINKS


https://www.heroupload.com/9fa926c2b95a7d1b/Kumbalangi.Nights.2019.Malayalam.WEB-DL.720p.AVC.UNTOUCHED.ESub-BWT.mkv



Buy Premium From My Links & Support Me

Теги: Kumbalangi

Dear visitor, you are browsing our website as Guest.
We strongly recommend you to register and login to view hidden contents.

Comments:

Add Comments