Set as default Homepage|Bookmark
 
 
» » Ishq (2019) Malayalam - 1080p - WEB-DL - AVC - UNTOUCHED - DD5.1 - ESub-BWT
Advertise

Ishq (2019) Malayalam - 1080p - WEB-DL - AVC - UNTOUCHED - DD5.1 - ESub-BWT

Author: wroser on 4-07-2019, 08:40
Ishq (2019) Malayalam - 1080p - WEB-DL - AVC - UNTOUCHED - DD5.1 - ESub-BWT




Format                      : Matroska
Format version              : Version 4
File size                   : 9.28 GiB
Duration                    : 2 h 12 min
Overall bit rate            : 10.0 Mb/s
Encoded date                : UTC 2019-07-04 06:30:35
Writing application         : mkvmerge v33.1.0 ('Primrose') 32-bit
Writing library             : libebml v1.3.7 + libmatroska v1.5.0

Video
ID                          : 1
Format                      : AVC
Format/Info                 : Advanced Video Codec
Format profile              : [email protected]
Format settings             : CABAC / 4 Ref Frames
Format settings, CABAC      : Yes
Format settings, Reference  : 4 frames
Format settings, GOP        : M=4, N=48
Codec ID                    : V_MPEG4/ISO/AVC
Duration                    : 2 h 12 min
Bit rate mode               : Constant
Bit rate                    : 9 359 kb/s
Nominal bit rate            : 10 000 kb/s
Width                       : 1 920 pixels
Height                      : 816 pixels
Display aspect ratio        : 2.35:1
Frame rate mode             : Constant
Frame rate                  : 24.000 FPS
Color space                 : YUV
Chroma subsampling          : 4:2:0
Bit depth                   : 8 bits
Scan type                   : Progressive
Bits/(Pixel*Frame)          : 0.249
Stream size                 : 8.68 GiB (94%)
Language                    : Malayalam
Default                     : Yes
Forced                      : No
Color range                 : Limited
Color primaries             : BT.709
Transfer characteristics    : BT.709
Matrix coefficients         : BT.709

Audio
ID                          : 2
Format                      : E-AC-3
Format/Info                 : Enhanced AC-3
Commercial name             : Dolby Digital Plus
Codec ID                    : A_EAC3
Duration                    : 2 h 12 min
Bit rate mode               : Constant
Bit rate                    : 640 kb/s
Channel(s)                  : 6 channels
Channel layout              : L R C LFE Ls Rs
Sampling rate               : 48.0 kHz
Frame rate                  : 31.250 FPS (1536 SPF)
Compression mode            : Lossy
Stream size                 : 608 MiB (6%)
Language                    : Malayalam
Service kind                : Complete Main
Default                     : Yes
Forced                      : No

Text
ID                          : 3
Format                      : UTF-8
Codec ID                    : S_TEXT/UTF8
Codec ID/Info               : UTF-8 Plain Text
Duration                    : 2 h 11 min
Bit rate                    : 54 b/s
Count of elements           : 1848
Stream size                 : 52.4 KiB (0%)
Language                    : English
Default                     : Yes
Forced                      : No



Ishq (2019) Malayalam - 1080p - WEB-DL - AVC - UNTOUCHED - DD5.1 - ESub-BWT
Ishq (2019) Malayalam - 1080p - WEB-DL - AVC - UNTOUCHED - DD5.1 - ESub-BWT
Ishq (2019) Malayalam - 1080p - WEB-DL - AVC - UNTOUCHED - DD5.1 - ESub-BWT
Ishq (2019) Malayalam - 1080p - WEB-DL - AVC - UNTOUCHED - DD5.1 - ESub-BWT
Ishq (2019) Malayalam - 1080p - WEB-DL - AVC - UNTOUCHED - DD5.1 - ESub-BWT
Ishq (2019) Malayalam - 1080p - WEB-DL - AVC - UNTOUCHED - DD5.1 - ESub-BWT
Ishq (2019) Malayalam - 1080p - WEB-DL - AVC - UNTOUCHED - DD5.1 - ESub-BWT
Ishq (2019) Malayalam - 1080p - WEB-DL - AVC - UNTOUCHED - DD5.1 - ESub-BWT
Ishq (2019) Malayalam - 1080p - WEB-DL - AVC - UNTOUCHED - DD5.1 - ESub-BWT

SINGLE DIRECT FAST LINKS

https://www.heroupload.com/f2b373d42d7ca451/Ishq.2019.Malayalam.WEB-DL.1080p.AVC.UNTOUCHED.DD5.1.ESub-BWT.mkv


1GB LINKS



https://www.heroupload.com/562eae9db5df1594/Ishq.2019.Malayalam.WEB-DL.1080p.AVC.UNTOUCHED.DD5.1.ESub-BWT.part01.rar
https://www.heroupload.com/7eb9c73d4559e870/Ishq.2019.Malayalam.WEB-DL.1080p.AVC.UNTOUCHED.DD5.1.ESub-BWT.part02.rar
https://www.heroupload.com/1e2728f9f852202f/Ishq.2019.Malayalam.WEB-DL.1080p.AVC.UNTOUCHED.DD5.1.ESub-BWT.part03.rar
https://www.heroupload.com/7854b58915699b8e/Ishq.2019.Malayalam.WEB-DL.1080p.AVC.UNTOUCHED.DD5.1.ESub-BWT.part04.rar
https://www.heroupload.com/1fddeb9fc10ecd14/Ishq.2019.Malayalam.WEB-DL.1080p.AVC.UNTOUCHED.DD5.1.ESub-BWT.part05.rar
https://www.heroupload.com/168ffd846ec47a41/Ishq.2019.Malayalam.WEB-DL.1080p.AVC.UNTOUCHED.DD5.1.ESub-BWT.part06.rar
https://www.heroupload.com/028c755208747435/Ishq.2019.Malayalam.WEB-DL.1080p.AVC.UNTOUCHED.DD5.1.ESub-BWT.part07.rar
https://www.heroupload.com/e6a457420efce1af/Ishq.2019.Malayalam.WEB-DL.1080p.AVC.UNTOUCHED.DD5.1.ESub-BWT.part08.rar
https://www.heroupload.com/1891b4ec3cce1bc1/Ishq.2019.Malayalam.WEB-DL.1080p.AVC.UNTOUCHED.DD5.1.ESub-BWT.part09.rar
https://www.heroupload.com/dbc973457e134065/Ishq.2019.Malayalam.WEB-DL.1080p.AVC.UNTOUCHED.DD5.1.ESub-BWT.part10.rar



Buy Premium From My Links & Support Me

Теги: Ishq

Dear visitor, you are browsing our website as Guest.
We strongly recommend you to register and login to view hidden contents.

Comments:

Add Comments