Set as default Homepage|Bookmark
 
 
» » 369 (2018) Malayalam - 1080p - WEB-DL - AVC - AAC - Esubs-BWT
Advertise

369 (2018) Malayalam - 1080p - WEB-DL - AVC - AAC - Esubs-BWT

Author: wroser on 26-06-2019, 06:48
369 (2018) Malayalam - 1080p - WEB-DL - AVC - AAC - Esubs-BWT






Format                      : Matroska
Format version              : Version 4
File size                   : 4.31 GiB
Duration                    : 1 h 54 min
Overall bit rate            : 5 366 kb/s
Encoded date                : UTC 2019-06-25 02:57:20
Writing application         : mkvmerge v30.1.0 ('Forever And More') 64-bit
Writing library             : libebml v1.3.6 + libmatroska v1.4.9

Video
ID                          : 1
Format                      : AVC
Format/Info                 : Advanced Video Codec
Format profile              : [email protected]
Format settings             : CABAC / 4 Ref Frames
Format settings, CABAC      : Yes
Format settings, Reference  : 4 frames
Codec ID                    : V_MPEG4/ISO/AVC
Duration                    : 1 h 54 min
Bit rate                    : 4 725 kb/s
Width                       : 1 920 pixels
Height                      : 800 pixels
Display aspect ratio        : 2.40:1
Frame rate mode             : Constant
Frame rate                  : 24.000 FPS
Color space                 : YUV
Chroma subsampling          : 4:2:0
Bit depth                   : 8 bits
Scan type                   : Progressive
Bits/(Pixel*Frame)          : 0.128
Stream size                 : 3.79 GiB (88%)
Default                     : Yes
Forced                      : No
Color range                 : Limited
Color primaries             : BT.709
Transfer characteristics    : BT.709
Matrix coefficients         : BT.709

Audio
ID                          : 2
Format                      : E-AC-3
Format/Info                 : Enhanced AC-3
Commercial name             : Dolby Digital Plus
Codec ID                    : A_EAC3
Duration                    : 1 h 54 min
Bit rate mode               : Constant
Bit rate                    : 640 kb/s
Channel(s)                  : 6 channels
Channel layout              : L R C LFE Ls Rs
Sampling rate               : 48.0 kHz
Frame rate                  : 31.250 FPS (1536 SPF)
Compression mode            : Lossy
Stream size                 : 526 MiB (12%)
Service kind                : Complete Main
Default                     : Yes
Forced                      : No

Text
ID                          : 3
Format                      : UTF-8
Codec ID                    : S_TEXT/UTF8
Codec ID/Info               : UTF-8 Plain Text
Duration                    : 1 h 50 min
Bit rate                    : 50 b/s
Count of elements           : 1340
Stream size                 : 41.0 KiB (0%)
Title                       : SDH
Language                    : English
Default                     : No
Forced                      : No



369 (2018) Malayalam - 1080p - WEB-DL - AVC - AAC - Esubs-BWT
369 (2018) Malayalam - 1080p - WEB-DL - AVC - AAC - Esubs-BWT
369 (2018) Malayalam - 1080p - WEB-DL - AVC - AAC - Esubs-BWT
369 (2018) Malayalam - 1080p - WEB-DL - AVC - AAC - Esubs-BWT
369 (2018) Malayalam - 1080p - WEB-DL - AVC - AAC - Esubs-BWT
369 (2018) Malayalam - 1080p - WEB-DL - AVC - AAC - Esubs-BWT



SINGLE DIRECT FAST LINKS

https://www.heroupload.com/72f2666dddc3f3cb/369.2018.Malayalam.WEB-DL.1080p.AVC.UNTOUCHED.DD5.1.ESub-BWT.mkv


1GB LINKS



https://www.heroupload.com/81705cfa3da6c02a/369.2018.Malayalam.WEB-DL.1080p.AVC.UNTOUCHED.DD5.1.ESub-BWT.part1.rar
https://www.heroupload.com/f7b5a0ee3764decd/369.2018.Malayalam.WEB-DL.1080p.AVC.UNTOUCHED.DD5.1.ESub-BWT.part2.rar
https://www.heroupload.com/7a7608a30caad147/369.2018.Malayalam.WEB-DL.1080p.AVC.UNTOUCHED.DD5.1.ESub-BWT.part3.rar
https://www.heroupload.com/cd8cd7772ac2a496/369.2018.Malayalam.WEB-DL.1080p.AVC.UNTOUCHED.DD5.1.ESub-BWT.part4.rar
https://www.heroupload.com/cd67636fab212046/369.2018.Malayalam.WEB-DL.1080p.AVC.UNTOUCHED.DD5.1.ESub-BWT.part5.rar



Buy Premium From My Links & Support Me

Теги: 369

Dear visitor, you are browsing our website as Guest.
We strongly recommend you to register and login to view hidden contents.

Comments:

Add Comments