Set as default Homepage|Bookmark
 
 
» » Men in Black: International (2019) 720p HD-CAMRip x264 [Hindi+Telugu+Tamil+English]
Advertise

Men in Black: International (2019) 720p HD-CAMRip x264 [Hindi+Telugu+Tamil+English]

Author: wroser on 16-06-2019, 00:15
Men in Black: International (2019) 720p HD-CAMRip x264 [Hindi+Telugu+Tamil+English]




Format                      : Matroska
Format version              : Version 4
File size                   : 936 MiB
Duration                    : 1 h 45 min
Overall bit rate mode       : Variable
Overall bit rate            : 1 239 kb/s
Encoded date                : UTC 2019-06-16 00:00:56
Writing application         : mkvmerge v33.1.0 ('Primrose') 32-bit
Writing library             : libebml v1.3.7 + libmatroska v1.5.0

Video
ID                          : 1
Format                      : AVC
Format/Info                 : Advanced Video Codec
Format profile              : [email protected]
Format settings             : CABAC / 4 Ref Frames
Format settings, CABAC      : Yes
Format settings, Reference  : 4 frames
Codec ID                    : V_MPEG4/ISO/AVC
Duration                    : 1 h 45 min
Bit rate                    : 866 kb/s
Width                       : 1 280 pixels
Height                      : 632 pixels
Display aspect ratio        : 2.025
Frame rate mode             : Constant
Frame rate                  : 29.970 (30000/1001) FPS
Color space                 : YUV
Chroma subsampling          : 4:2:0
Bit depth                   : 8 bits
Scan type                   : Progressive
Bits/(Pixel*Frame)          : 0.036
Stream size                 : 650 MiB (69%)
Writing library             : x264 core 157 r2935 545de2f
Encoding settings           : cabac=1 / ref=1 / deblock=1:0:0 / analyse=0x3:0x113 / me=hex / subme=2 / psy=1 / psy_rd=1.00:0.00 / mixed_ref=0 / me_range=16 / chroma_me=1 / trellis=0 / 8x8dct=1 / cqm=0 / deadzone=21,11 / fast_pskip=1 / chroma_qp_offset=0 / threads=20 / lookahead_threads=4 / sliced_threads=0 / nr=0 / decimate=1 / interlaced=0 / bluray_compat=0 / constrained_intra=0 / bframes=3 / b_pyramid=2 / b_adapt=1 / b_bias=0 / direct=1 / weightb=1 / open_gop=0 / weightp=1 / keyint=300 / keyint_min=29 / scenecut=40 / intra_refresh=0 / rc_lookahead=10 / rc=abr / mbtree=1 / bitrate=866 / ratetol=1.0 / qcomp=0.60 / qpmin=0 / qpmax=69 / qpstep=4 / ip_ratio=1.40 / aq=1:1.00
Language                    : English
Default                     : Yes
Forced                      : No

Audio #1
ID                          : 2
Format                      : AC-3
Format/Info                 : Audio Coding 3
Commercial name             : Dolby Digital
Codec ID                    : A_AC3
Duration                    : 1 h 45 min
Bit rate mode               : Constant
Bit rate                    : 96.0 kb/s
Channel(s)                  : 2 channels
Channel layout              : L R
Sampling rate               : 48.0 kHz
Frame rate                  : 31.250 FPS (1536 SPF)
Bit depth                   : 16 bits
Compression mode            : Lossy
Stream size                 : 72.5 MiB (8%)
Language                    : Telugu
Service kind                : Complete Main
Default                     : Yes
Forced                      : No

Audio #2
ID                          : 3
Format                      : AC-3
Format/Info                 : Audio Coding 3
Commercial name             : Dolby Digital
Codec ID                    : A_AC3
Duration                    : 1 h 45 min
Bit rate mode               : Constant
Bit rate                    : 96.0 kb/s
Channel(s)                  : 2 channels
Channel layout              : L R
Sampling rate               : 48.0 kHz
Frame rate                  : 31.250 FPS (1536 SPF)
Bit depth                   : 16 bits
Compression mode            : Lossy
Stream size                 : 72.5 MiB (8%)
Language                    : Tamil
Service kind                : Complete Main
Default                     : No
Forced                      : No

Audio #3
ID                          : 4
Format                      : MPEG Audio
Format version              : Version 1
Format profile              : Layer 3
Format settings             : Joint stereo / MS Stereo
Codec ID                    : A_MPEG/L3
Codec ID/Hint               : MP3
Duration                    : 1 h 45 min
Bit rate mode               : Variable
Bit rate                    : 85.4 kb/s
Nominal bit rate            : 96.0 kb/s
Channel(s)                  : 2 channels
Sampling rate               : 44.1 kHz
Frame rate                  : 38.281 FPS (1152 SPF)
Compression mode            : Lossy
Stream size                 : 64.6 MiB (7%)
Writing library             : LAME3.99r
Encoding settings           : -m j -V 4 -q 3 -lowpass 15.1 --abr 96
Language                    : Hindi
Default                     : No
Forced                      : No

Audio #4
ID                          : 5
Format                      : MPEG Audio
Format version              : Version 1
Format profile              : Layer 3
Format settings             : Joint stereo / MS Stereo
Codec ID                    : A_MPEG/L3
Codec ID/Hint               : MP3
Duration                    : 1 h 45 min
Bit rate mode               : Variable
Bit rate                    : 96.0 kb/s
Channel(s)                  : 2 channels
Sampling rate               : 48.0 kHz
Frame rate                  : 41.667 FPS (1152 SPF)
Compression mode            : Lossy
Stream size                 : 73.3 MiB (8%)
Writing library             : LAME3.99r
Encoding settings           : -m j -V 4 -q 3 -lowpass 15.1 --abr 96
Language                    : English
Default                     : No
Forced                      : No




Men in Black: International (2019) 720p HD-CAMRip x264 [Hindi+Telugu+Tamil+English]
Men in Black: International (2019) 720p HD-CAMRip x264 [Hindi+Telugu+Tamil+English]
Men in Black: International (2019) 720p HD-CAMRip x264 [Hindi+Telugu+Tamil+English]
Men in Black: International (2019) 720p HD-CAMRip x264 [Hindi+Telugu+Tamil+English]
Men in Black: International (2019) 720p HD-CAMRip x264 [Hindi+Telugu+Tamil+English]

SINGLE DIRECT FAST LINKS

https://www.heroupload.com/33bb24c5e54250af/Men.in.Black.International.2019.HDCAM-Rip.720p.Telugu+Tamil+Hindi+English.mkv



Buy Premium From My Links & Support Me

Теги: Men

Dear visitor, you are browsing our website as Guest.
We strongly recommend you to register and login to view hidden contents.

Comments:

Add Comments