Set as default Homepage|Bookmark
 
 
» » Kavacham (2018) Telugu - 1080p - WEB-DL - AVC - AAC-BWT
Advertise

Kavacham (2018) Telugu - 1080p - WEB-DL - AVC - AAC-BWT

Author: wroser on 14-06-2019, 16:49
Kavacham (2018) Telugu - 1080p - WEB-DL - AVC - AAC-BWT




Format                      : MPEG-4
Format profile              : Base Media
Codec ID                    : isom (isom/iso2/avc1/mp41)
File size                   : 2.42 GiB
Duration                    : 2 h 18 min
Overall bit rate            : 2 499 kb/s
Writing application         : Lavf58.9.100

Video
ID                          : 1
Format                      : AVC
Format/Info                 : Advanced Video Codec
Format profile              : [email protected]
Format settings             : CABAC / 4 Ref Frames
Format settings, CABAC      : Yes
Format settings, Reference  : 4 frames
Codec ID                    : avc1
Codec ID/Info               : Advanced Video Coding
Duration                    : 2 h 18 min
Bit rate                    : 2 376 kb/s
Width                       : 1 920 pixels
Height                      : 1 080 pixels
Display aspect ratio        : 16:9
Frame rate mode             : Constant
Frame rate                  : 24.000 FPS
Color space                 : YUV
Chroma subsampling          : 4:2:0
Bit depth                   : 8 bits
Scan type                   : Progressive
Bits/(Pixel*Frame)          : 0.048
Stream size                 : 2.26 GiB (93%)
Writing library             : x264 core 152 r2851 ba24899
Encoding settings           : cabac=1 / ref=4 / deblock=1:0:0 / analyse=0x3:0x113 / me=hex / subme=8 / psy=1 / psy_rd=1.00:0.00 / mixed_ref=1 / me_range=16 / chroma_me=1 / trellis=2 / 8x8dct=1 / cqm=0 / deadzone=21,11 / fast_pskip=1 / chroma_qp_offset=-2 / threads=10 / lookahead_threads=1 / sliced_threads=0 / nr=0 / decimate=1 / interlaced=0 / bluray_compat=0 / constrained_intra=0 / bframes=0 / weightp=2 / keyint=72 / keyint_min=7 / scenecut=40 / intra_refresh=0 / rc_lookahead=50 / rc=cbr / mbtree=1 / bitrate=2376 / ratetol=1.0 / qcomp=0.90 / qpmin=3 / qpmax=51 / qpstep=8 / vbv_maxrate=2376 / vbv_bufsize=9504 / nal_hrd=none / filler=0 / ip_ratio=1.40 / aq=1:1.00
Codec configuration box     : avcC

Audio
ID                          : 2
Format                      : AAC LC
Format/Info                 : Advanced Audio Codec Low Complexity
Codec ID                    : mp4a-40-2
Duration                    : 2 h 18 min
Bit rate mode               : Constant
Bit rate                    : 165 kb/s
Channel(s)                  : 2 channels
Channel layout              : L R
Sampling rate               : 44.1 kHz
Frame rate                  : 43.066 FPS (1024 SPF)
Compression mode            : Lossy
Stream size                 : 163 MiB (7%)
Default                     : Yes
Alternate group             : 1



Kavacham (2018) Telugu - 1080p - WEB-DL - AVC - AAC-BWT
Kavacham (2018) Telugu - 1080p - WEB-DL - AVC - AAC-BWT
Kavacham (2018) Telugu - 1080p - WEB-DL - AVC - AAC-BWT
Kavacham (2018) Telugu - 1080p - WEB-DL - AVC - AAC-BWT
Kavacham (2018) Telugu - 1080p - WEB-DL - AVC - AAC-BWT
Kavacham (2018) Telugu - 1080p - WEB-DL - AVC - AAC-BWT
Kavacham (2018) Telugu - 1080p - WEB-DL - AVC - AAC-BWT
Kavacham (2018) Telugu - 1080p - WEB-DL - AVC - AAC-BWT
Kavacham (2018) Telugu - 1080p - WEB-DL - AVC - AAC-BWT

SINGLE DIRECT FAST LINKS

https://www.heroupload.com/c063ad3a8343ae02/Kavacham.2018.Telugu.WEB-DL.1080p.AVC.UNTOUCHED.AAC-BWT.mp4


700MB LINKS


https://www.heroupload.com/36b3d40ae3e95a37/Kavacham.2018.Telugu.WEB-DL.1080p.AVC.UNTOUCHED.AAC-BWT.part1.rar
https://www.heroupload.com/f0fd737acad68952/Kavacham.2018.Telugu.WEB-DL.1080p.AVC.UNTOUCHED.AAC-BWT.part2.rar
https://www.heroupload.com/343279726a6fe2b9/Kavacham.2018.Telugu.WEB-DL.1080p.AVC.UNTOUCHED.AAC-BWT.part3.rar
https://www.heroupload.com/f8255b13f5744f5e/Kavacham.2018.Telugu.WEB-DL.1080p.AVC.UNTOUCHED.AAC-BWT.part4.rar



Buy Premium From My Links & Support Me

Теги: Kavacham

Dear visitor, you are browsing our website as Guest.
We strongly recommend you to register and login to view hidden contents.

Comments:

Add Comments