Set as default Homepage|Bookmark
 
 
» » Girls Trip (2017) 720p BluRay x264 DD5.1 Esubs [Dual Audio][Hindi+English] ExTM
Advertise

Girls Trip (2017) 720p BluRay x264 DD5.1 Esubs [Dual Audio][Hindi+English] ExTM

Author: wroser on 11-06-2019, 14:33
Girls Trip (2017) 720p BluRay x264 DD5.1 Esubs [Dual Audio][Hindi+English] ExTM






Format                      : Matroska
Format version              : Version 4
File size                   : 1.04 GiB
Duration                    : 2 h 2 min
Overall bit rate            : 1 225 kb/s
Encoded date                : UTC 2019-06-11 01:55:03
Writing application         : mkvmerge v33.1.0 ('Primrose') 32-bit
Writing library             : libebml v1.3.7 + libmatroska v1.5.0

Video
ID                          : 1
Format                      : AVC
Format/Info                 : Advanced Video Codec
Format profile              : [email protected]
Format settings             : CABAC / 8 Ref Frames
Format settings, CABAC      : Yes
Format settings, Reference  : 8 frames
Codec ID                    : V_MPEG4/ISO/AVC
Duration                    : 2 h 2 min
Bit rate                    : 999 kb/s
Width                       : 1 280 pixels
Height                      : 544 pixels
Display aspect ratio        : 2.35:1
Frame rate mode             : Constant
Frame rate                  : 23.976 (23976/1000) FPS
Color space                 : YUV
Chroma subsampling          : 4:2:0
Bit depth                   : 8 bits
Scan type                   : Progressive
Bits/(Pixel*Frame)          : 0.060
Stream size                 : 872 MiB (82%)
Writing library             : x264 core 142 r2479 dd79a61
Encoding settings           : cabac=1 / ref=8 / deblock=1:0:0 / analyse=0x3:0x113 / me=umh / subme=9 / psy=1 / psy_rd=1.00:0.00 / mixed_ref=1 / me_range=16 / chroma_me=1 / trellis=2 / 8x8dct=1 / cqm=0 / deadzone=21,11 / fast_pskip=1 / chroma_qp_offset=-2 / threads=12 / lookahead_threads=1 / sliced_threads=0 / nr=0 / decimate=1 / interlaced=0 / bluray_compat=0 / constrained_intra=0 / bframes=3 / b_pyramid=2 / b_adapt=2 / b_bias=0 / direct=3 / weightb=1 / open_gop=0 / weightp=2 / keyint=240 / keyint_min=24 / scenecut=40 / intra_refresh=0 / rc_lookahead=40 / rc=2pass / mbtree=1 / bitrate=999 / ratetol=1.0 / qcomp=0.60 / qpmin=0 / qpmax=69 / qpstep=4 / cplxblur=20.0 / qblur=0.5 / vbv_maxrate=62500 / vbv_bufsize=78125 / nal_hrd=none / filler=0 / ip_ratio=1.40 / aq=1:1.00
Default                     : Yes
Forced                      : No
Color range                 : Limited
Color primaries             : BT.709
Transfer characteristics    : BT.709
Matrix coefficients         : BT.709

Audio #1
ID                          : 2
Format                      : AAC LC SBR
Format/Info                 : Advanced Audio Codec Low Complexity with Spectral Band Replication
Commercial name             : HE-AAC
Format settings             : NBC
Codec ID                    : A_AAC-5
Duration                    : 2 h 2 min
Bit rate                    : 128 kb/s
Channel(s)                  : 6 channels
Channel layout              : C L R Ls Rs LFE
Sampling rate               : 48.0 kHz
Frame rate                  : 23.438 FPS (2048 SPF)
Compression mode            : Lossy
Delay relative to video     : -57 ms
Stream size                 : 112 MiB (10%)
Language                    : Hindi
Default                     : Yes
Forced                      : No

Audio #2
ID                          : 3
Format                      : AAC LC SBR
Format/Info                 : Advanced Audio Codec Low Complexity with Spectral Band Replication
Commercial name             : HE-AAC
Format settings             : NBC
Codec ID                    : A_AAC-5
Duration                    : 2 h 2 min
Bit rate                    : 96.0 kb/s
Channel(s)                  : 6 channels
Channel layout              : C L R Ls Rs LFE
Sampling rate               : 48.0 kHz
Frame rate                  : 23.438 FPS (2048 SPF)
Compression mode            : Lossy
Delay relative to video     : -105 ms
Stream size                 : 83.8 MiB (8%)
Language                    : English
Default                     : No
Forced                      : No

Text
ID                          : 4
Format                      : UTF-8
Codec ID                    : S_TEXT/UTF8
Codec ID/Info               : UTF-8 Plain Text
Duration                    : 1 h 57 min
Bit rate                    : 84 b/s
Count of elements           : 2250
Stream size                 : 72.6 KiB (0%)
Language                    : English
Default                     : Yes
Forced                      : No




Girls Trip (2017) 720p BluRay x264 DD5.1 Esubs [Dual Audio][Hindi+English] ExTM

Girls Trip (2017) 720p BluRay x264 DD5.1 Esubs [Dual Audio][Hindi+English] ExTM

Girls Trip (2017) 720p BluRay x264 DD5.1 Esubs [Dual Audio][Hindi+English] ExTM

Girls Trip (2017) 720p BluRay x264 DD5.1 Esubs [Dual Audio][Hindi+English] ExTM


SINGLE DIRECT FAST LINKS


https://www.heroupload.com/03724d8a70da9d93/Girls.Trip.2017.Dual.Audio.Hindi.DD5.1.720p.BluRay.ESubs-EXTM.mkv


Buy Premium From My Links & Support Me

Теги: Girls

Dear visitor, you are browsing our website as Guest.
We strongly recommend you to register and login to view hidden contents.

Comments:

Add Comments