Set as default Homepage|Bookmark
 
 
» » Afra Tafri (Charlie Chaplin 2) (2019) Hindi - 1080p - WEB HD - AVC - AAC-IcTv Exclusi
Advertise

Afra Tafri (Charlie Chaplin 2) (2019) Hindi - 1080p - WEB HD - AVC - AAC-IcTv Exclusi

Author: wroser on 10-06-2019, 10:45
Afra Tafri (Charlie Chaplin 2) (2019) Hindi - 1080p - WEB HD - AVC - AAC-IcTv Exclusi





Format                      : MPEG-4
Format profile              : Base Media
Codec ID                    : isom (isom/iso2/avc1/mp41)
File size                   : 2.63 GiB
Duration                    : 1 h 41 min
Overall bit rate            : 3 698 kb/s
Writing application         : Lavf56.40.101

Video
ID                          : 1
Format                      : AVC
Format/Info                 : Advanced Video Codec
Format profile              : [email protected]
Format settings             : CABAC / 3 Ref Frames
Format settings, CABAC      : Yes
Format settings, Reference  : 3 frames
Codec ID                    : avc1
Codec ID/Info               : Advanced Video Coding
Duration                    : 1 h 41 min
Duration_FirstFrame         : -40 ms
Bit rate                    : 3 564 kb/s
Width                       : 1 920 pixels
Height                      : 1 080 pixels
Display aspect ratio        : 16:9
Frame rate mode             : Variable
Frame rate                  : 25.000 FPS
Minimum frame rate          : 25.000 FPS
Maximum frame rate          : 25.098 FPS
Color space                 : YUV
Chroma subsampling          : 4:2:0
Bit depth                   : 8 bits
Scan type                   : Progressive
Bits/(Pixel*Frame)          : 0.069
Stream size                 : 2.53 GiB (96%)
Color range                 : Limited
Color primaries             : BT.709
Transfer characteristics    : BT.709
Matrix coefficients         : BT.709
Codec configuration box     : avcC

Audio
ID                          : 2
Format                      : AAC LC
Format/Info                 : Advanced Audio Codec Low Complexity
Codec ID                    : mp4a-40-2
Duration                    : 1 h 41 min
Bit rate mode               : Constant
Bit rate                    : 128 kb/s
Channel(s)                  : 2 channels
Channel layout              : L R
Sampling rate               : 44.1 kHz
Frame rate                  : 43.066 FPS (1024 SPF)
Compression mode            : Lossy
Stream size                 : 93.1 MiB (3%)
Default                     : Yes
Alternate group             : 1



Afra Tafri (Charlie Chaplin 2) (2019) Hindi - 1080p - WEB HD - AVC - AAC-IcTv ExclusiAfra Tafri (Charlie Chaplin 2) (2019) Hindi - 1080p - WEB HD - AVC - AAC-IcTv ExclusiAfra Tafri (Charlie Chaplin 2) (2019) Hindi - 1080p - WEB HD - AVC - AAC-IcTv ExclusiAfra Tafri (Charlie Chaplin 2) (2019) Hindi - 1080p - WEB HD - AVC - AAC-IcTv Exclusi


SINGLE DIRECT FAST LINKS

https://www.heroupload.com/8b80bea9e8590e9c/Afra.Tafri.2019.1080p.UntoucheD.WEB-HD.AVC.AAC-ICTV.Exclusive.mp4



700MB LINKS


https://www.heroupload.com/d81591d5a432a955/Afra.Tafri.2019.1080p.UntoucheD.WEB-HD.AVC.AAC-ICTV.Exclusive.part1.rar
https://www.heroupload.com/0b3d964e823a3ba9/Afra.Tafri.2019.1080p.UntoucheD.WEB-HD.AVC.AAC-ICTV.Exclusive.part2.rar
https://www.heroupload.com/21f5cb9779a9e0a3/Afra.Tafri.2019.1080p.UntoucheD.WEB-HD.AVC.AAC-ICTV.Exclusive.part3.rar
https://www.heroupload.com/a29467e37e93155c/Afra.Tafri.2019.1080p.UntoucheD.WEB-HD.AVC.AAC-ICTV.Exclusive.part4.rar


Buy Premium From My Links & Support Me

Теги: Afra

Dear visitor, you are browsing our website as Guest.
We strongly recommend you to register and login to view hidden contents.

Comments:

Add Comments