Set as default Homepage|Bookmark
 
 
» » Extremely Loud & Incredibly Close (2011) 720p BRRip x264 [Dual Audio][Hindi+English]
Advertise

Extremely Loud & Incredibly Close (2011) 720p BRRip x264 [Dual Audio][Hindi+English]

Author: wroser on 9-06-2019, 04:33
Extremely Loud & Incredibly Close (2011) 720p BRRip x264 [Dual Audio][Hindi+English]





Extremely Loud & Incredibly Close (2011)
PG-13 | 2h 9min | Adventure, Drama, Mystery | 20 January 2012 (USA)

A nine-year-old amateur inventor, Francophile, and pacifist searches New York City for the
lock that matches a mysterious key left behind by his father, who died in the World Trade Center on September 11, 2001.

Director: Stephen Daldry
Writers: Eric Roth (screenplay), Jonathan Safran Foer (novel)
Stars: Thomas Horn, Tom Hanks, Sandra Bullock

Media Info:
Format : Matroska
Format version : Version 4
File size : 1.07 GiB
Duration : 2 h 9 min
Overall bit rate : 1 184 kb/s

Video
ID : 1
Format : AVC
Format/Info : Advanced Video Codec
Format profile : [email protected]
Format settings : CABAC / 5 Ref Frames
Format settings, CABAC : Yes
Format settings, ReFrames : 5 frames
Codec ID : V_MPEG4/ISO/AVC
Duration : 2 h 9 min
Bit rate : 798 kb/s
Width : 1 280 pixels
Height : 536 pixels
Display aspect ratio : 2.40:1
Frame rate mode : Constant
Frame rate : 23.976 (24000/1001) FPS
Color space : YUV
Chroma subsampling : 4:2:0
Bit depth : 8 bits
Scan type : Progressive
Bits/(Pixel*Frame) : 0.049
Stream size : 739 MiB (67%)


Audio #1
ID : 2
Format : AC-3
Format/Info : Audio Coding 3
Commercial name : Dolby Digital
Codec ID : A_AC3
Duration : 2 h 9 min
Bit rate mode : Constant
Bit rate : 192 kb/s
Channel(s) : 2 channels
Channel layout : L R
Sampling rate : 44.1 kHz
Frame rate : 28.711 FPS (1536 SPF)
Bit depth : 16 bits
Compression mode : Lossy
Stream size : 178 MiB (16%)
Language : Hindi
Service kind : Complete Main
Default : Yes
Forced : Yes

Audio #2
ID : 3
Format : AC-3
Format/Info : Audio Coding 3
Commercial name : Dolby Digital
Codec ID : A_AC3
Duration : 2 h 9 min
Bit rate mode : Constant
Bit rate : 192 kb/s
Channel(s) : 2 channels
Channel layout : L R
Sampling rate : 44.1 kHz
Frame rate : 28.711 FPS (1536 SPF)
Bit depth : 16 bits
Compression mode : Lossy
Stream size : 178 MiB (16%)
Language : English
Service kind : Complete Main
Default : No
Forced : No

Text #1
ID : 4
Format : UTF-8
Codec ID : S_TEXT/UTF8
Codec ID/Info : UTF-8 Plain Text
Duration : 2 h 9 min
Bit rate : 55 b/s
Count of elements : 1405
Stream size : 53.0 KiB (0%)
Language : English
Default : Yes
Forced : No

Text #2
ID : 5
Format : UTF-8
Codec ID : S_TEXT/UTF8
Codec ID/Info : UTF-8 Plain Text
Duration : 1 h 59 min
Bit rate : 74 b/s
Count of elements : 1325
Stream size : 65.1 KiB (0%)
Language : Arabic
Default : No
Forced : No

Text #3
ID : 6
Format : UTF-8
Codec ID : S_TEXT/UTF8
Codec ID/Info : UTF-8 Plain Text
Duration : 1 h 43 min
Bit rate : 108 b/s
Count of elements : 1080
Stream size : 82.0 KiB (0%)
Language : Bengali
Default : No
Forced : No 




Extremely Loud & Incredibly Close (2011) 720p BRRip x264 [Dual Audio][Hindi+English]
Extremely Loud & Incredibly Close (2011) 720p BRRip x264 [Dual Audio][Hindi+English]
Extremely Loud & Incredibly Close (2011) 720p BRRip x264 [Dual Audio][Hindi+English]
Extremely Loud & Incredibly Close (2011) 720p BRRip x264 [Dual Audio][Hindi+English]

SINGLE DIRECT FAST LINKS


https://www.heroupload.com/6a475206a67f4244/Extremely.Loud.and.Incredible.Close.2011.720p.BRRip.Dual.Audio.HIND+ENGLISH.mkv




Buy Premium From My Links & Support Me

Теги: Extremely

Dear visitor, you are browsing our website as Guest.
We strongly recommend you to register and login to view hidden contents.

Comments:

Add Comments