Set as default Homepage|Bookmark
 
 
» » X-Men: Dark Phoenix (2019) 720p HD-CAMRip x264 [Multi Audios][Hindi+Telugu+Tamil+Eng]
Advertise

X-Men: Dark Phoenix (2019) 720p HD-CAMRip x264 [Multi Audios][Hindi+Telugu+Tamil+Eng]

Author: wroser on 7-06-2019, 14:58
X-Men: Dark Phoenix (2019) 720p HD-CAMRip x264 [Multi Audios][Hindi+Telugu+Tamil+Eng]






Format                      : Matroska
Format version              : Version 4
File size                   : 1.05 GiB
Duration                    : 1 h 46 min
Overall bit rate            : 1 419 kb/s
Encoded date                : UTC 2019-06-07 14:45:25
Writing application         : mkvmerge v33.1.0 ('Primrose') 32-bit
Writing library             : libebml v1.3.7 + libmatroska v1.5.0

Video
ID                          : 1
Format                      : AVC
Format/Info                 : Advanced Video Codec
Format profile              : [email protected]
Format settings             : CABAC / 4 Ref Frames
Format settings, CABAC      : Yes
Format settings, Reference  : 4 frames
Codec ID                    : V_MPEG4/ISO/AVC
Duration                    : 1 h 46 min
Bit rate                    : 937 kb/s
Width                       : 1 280 pixels
Height                      : 544 pixels
Display aspect ratio        : 2.35:1
Frame rate mode             : Constant
Frame rate                  : 30.000 FPS
Color space                 : YUV
Chroma subsampling          : 4:2:0
Bit depth                   : 8 bits
Scan type                   : Progressive
Bits/(Pixel*Frame)          : 0.045
Stream size                 : 711 MiB (66%)
Writing library             : x264 core 155 r2901 7d0ff22
Encoding settings           : cabac=1 / ref=2 / deblock=1:0:0 / analyse=0x3:0x113 / me=hex / subme=4 / psy=1 / psy_rd=1.00:0.00 / mixed_ref=0 / me_range=16 / chroma_me=1 / trellis=1 / 8x8dct=1 / cqm=0 / deadzone=21,11 / fast_pskip=1 / chroma_qp_offset=0 / threads=12 / lookahead_threads=3 / sliced_threads=0 / nr=0 / decimate=1 / interlaced=0 / bluray_compat=0 / constrained_intra=0 / bframes=3 / b_pyramid=2 / b_adapt=1 / b_bias=0 / direct=1 / weightb=1 / open_gop=0 / weightp=1 / keyint=300 / keyint_min=30 / scenecut=40 / intra_refresh=0 / rc_lookahead=20 / rc=abr / mbtree=1 / bitrate=937 / ratetol=1.0 / qcomp=0.60 / qpmin=0 / qpmax=69 / qpstep=4 / ip_ratio=1.40 / aq=1:1.00
Default                     : Yes
Forced                      : No
Color range                 : Limited
Color primaries             : BT.709
Transfer characteristics    : BT.709
Matrix coefficients         : BT.709

Audio #1
ID                          : 2
Format                      : MPEG Audio
Format version              : Version 1
Format profile              : Layer 3
Format settings             : Joint stereo / MS Stereo
Codec ID                    : A_MPEG/L3
Codec ID/Hint               : MP3
Duration                    : 1 h 46 min
Bit rate mode               : Constant
Bit rate                    : 128 kb/s
Channel(s)                  : 2 channels
Sampling rate               : 48.0 kHz
Frame rate                  : 41.667 FPS (1152 SPF)
Compression mode            : Lossy
Delay relative to video     : -23 ms
Stream size                 : 97.1 MiB (9%)
Language                    : Telugu
Default                     : No
Forced                      : No

Audio #2
ID                          : 3
Format                      : MPEG Audio
Format version              : Version 1
Format profile              : Layer 3
Format settings             : Joint stereo / MS Stereo
Codec ID                    : A_MPEG/L3
Codec ID/Hint               : MP3
Duration                    : 1 h 46 min
Bit rate mode               : Constant
Bit rate                    : 128 kb/s
Channel(s)                  : 2 channels
Sampling rate               : 48.0 kHz
Frame rate                  : 41.667 FPS (1152 SPF)
Compression mode            : Lossy
Delay relative to video     : -23 ms
Stream size                 : 97.1 MiB (9%)
Language                    : Tamil
Default                     : No
Forced                      : No

Audio #3
ID                          : 4
Format                      : AAC LC
Format/Info                 : Advanced Audio Codec Low Complexity
Codec ID                    : A_AAC-2
Duration                    : 1 h 46 min
Bit rate                    : 128 kb/s
Channel(s)                  : 2 channels
Channel layout              : L R
Sampling rate               : 44.1 kHz
Frame rate                  : 43.066 FPS (1024 SPF)
Compression mode            : Lossy
Delay relative to video     : -13 ms
Stream size                 : 97.2 MiB (9%)
Language                    : Hindi
Default                     : Yes
Forced                      : Yes

Audio #4
ID                          : 5
Format                      : MPEG Audio
Format version              : Version 1
Format profile              : Layer 3
Format settings             : Joint stereo / MS Stereo
Codec ID                    : A_MPEG/L3
Codec ID/Hint               : MP3
Duration                    : 1 h 46 min
Bit rate mode               : Constant
Bit rate                    : 96.0 kb/s
Channel(s)                  : 2 channels
Sampling rate               : 48.0 kHz
Frame rate                  : 41.667 FPS (1152 SPF)
Compression mode            : Lossy
Stream size                 : 72.8 MiB (7%)
Language                    : English
Default                     : No
Forced                      : No



X-Men: Dark Phoenix (2019) 720p HD-CAMRip x264 [Multi Audios][Hindi+Telugu+Tamil+Eng]
X-Men: Dark Phoenix (2019) 720p HD-CAMRip x264 [Multi Audios][Hindi+Telugu+Tamil+Eng]
X-Men: Dark Phoenix (2019) 720p HD-CAMRip x264 [Multi Audios][Hindi+Telugu+Tamil+Eng]
X-Men: Dark Phoenix (2019) 720p HD-CAMRip x264 [Multi Audios][Hindi+Telugu+Tamil+Eng]
X-Men: Dark Phoenix (2019) 720p HD-CAMRip x264 [Multi Audios][Hindi+Telugu+Tamil+Eng]
X-Men: Dark Phoenix (2019) 720p HD-CAMRip x264 [Multi Audios][Hindi+Telugu+Tamil+Eng]

SINGLE DIRECT FAST LINKS



https://www.heroupload.com/64ced6c4770c4370/X-Men.Dark.Phoenix.2019.HDCAM-Rip.720p.x264.Telugu+Tamil+Hindi+English.mkv






Buy Premium From My Links & Support Me

Теги: X

Dear visitor, you are browsing our website as Guest.
We strongly recommend you to register and login to view hidden contents.

Comments:

Add Comments