Set as default Homepage|Bookmark
 
 
» » Amavasya (2019) 1080p - WEB-HDRip - x264 [Dual Audio][Telugu-Line+Hindi] - TMV
Advertise

Amavasya (2019) 1080p - WEB-HDRip - x264 [Dual Audio][Telugu-Line+Hindi] - TMV

Author: wroser on 5-06-2019, 21:45
Amavasya (2019) 1080p - WEB-HDRip - x264 [Dual Audio][Telugu-Line+Hindi] - TMV





Format                      : Matroska
Format version              : Version 4
File size                   : 2.09 GiB
Duration                    : 2 h 7 min
Overall bit rate mode       : Variable
Overall bit rate            : 2 357 kb/s
Encoded date                : UTC 2019-06-05 15:54:24
Writing application         : mkvmerge v33.1.0 ('Primrose') 32-bit
Writing library             : libebml v1.3.7 + libmatroska v1.5.0

Video
ID                          : 1
Format                      : AVC
Format/Info                 : Advanced Video Codec
Format profile              : [email protected]
Format settings             : CABAC / 4 Ref Frames
Format settings, CABAC      : Yes
Format settings, Reference  : 4 frames
Codec ID                    : V_MPEG4/ISO/AVC
Duration                    : 2 h 7 min
Bit rate                    : 2 200 kb/s
Width                       : 1 920 pixels
Height                      : 1 080 pixels
Display aspect ratio        : 16:9
Frame rate mode             : Constant
Frame rate                  : 25.000 FPS
Color space                 : YUV
Chroma subsampling          : 4:2:0
Bit depth                   : 8 bits
Scan type                   : Progressive
Bits/(Pixel*Frame)          : 0.042
Stream size                 : 1.92 GiB (92%)
Writing library             : x264 core 152 r2854 e9a5903
Encoding settings           : cabac=1 / ref=3 / deblock=1:0:0 / analyse=0x3:0x113 / me=hex / subme=7 / psy=1 / psy_rd=1.00:0.00 / mixed_ref=1 / me_range=16 / chroma_me=1 / trellis=1 / 8x8dct=1 / cqm=0 / deadzone=21,11 / fast_pskip=1 / chroma_qp_offset=-2 / threads=34 / lookahead_threads=5 / sliced_threads=0 / nr=0 / decimate=1 / interlaced=0 / bluray_compat=0 / constrained_intra=0 / bframes=3 / b_pyramid=2 / b_adapt=1 / b_bias=0 / direct=1 / weightb=1 / open_gop=0 / weightp=2 / keyint=50 / keyint_min=26 / scenecut=0 / intra_refresh=0 / rc_lookahead=40 / rc=abr / mbtree=1 / bitrate=2200 / ratetol=1.0 / qcomp=0.60 / qpmin=0 / qpmax=69 / qpstep=4 / vbv_maxrate=2860 / vbv_bufsize=3300 / nal_hrd=none / filler=0 / ip_ratio=1.40 / aq=1:1.00
Language                    : Hindi
Default                     : Yes
Forced                      : No

Audio #1
ID                          : 2
Format                      : MPEG Audio
Format version              : Version 1
Format profile              : Layer 3
Format settings             : Joint stereo / MS Stereo
Codec ID                    : A_MPEG/L3
Codec ID/Hint               : MP3
Duration                    : 2 h 7 min
Bit rate mode               : Variable
Bit rate                    : 96.0 kb/s
Channel(s)                  : 2 channels
Sampling rate               : 48.0 kHz
Frame rate                  : 41.667 FPS (1152 SPF)
Compression mode            : Lossy
Delay relative to video     : -80 ms
Stream size                 : 89.0 MiB (4%)
Writing library             : LAME3.99r
Encoding settings           : -m j -V 4 -q 3 -lowpass 15.1 --abr 96
Language                    : Telugu
Default                     : Yes
Forced                      : No

Audio #2
ID                          : 3
Format                      : AAC LC
Format/Info                 : Advanced Audio Codec Low Complexity
Codec ID                    : A_AAC-2
Duration                    : 2 h 7 min
Bit rate                    : 96.0 kb/s
Channel(s)                  : 2 channels
Channel layout              : L R
Sampling rate               : 48.0 kHz
Frame rate                  : 46.875 FPS (1024 SPF)
Compression mode            : Lossy
Delay relative to video     : -80 ms
Stream size                 : 87.6 MiB (4%)
Language                    : Hindi
Default                     : No
Forced                      : No




Amavasya (2019) 1080p - WEB-HDRip - x264 [Dual Audio][Telugu-Line+Hindi] - TMV
Amavasya (2019) 1080p - WEB-HDRip - x264 [Dual Audio][Telugu-Line+Hindi] - TMV
Amavasya (2019) 1080p - WEB-HDRip - x264 [Dual Audio][Telugu-Line+Hindi] - TMV
Amavasya (2019) 1080p - WEB-HDRip - x264 [Dual Audio][Telugu-Line+Hindi] - TMV
Amavasya (2019) 1080p - WEB-HDRip - x264 [Dual Audio][Telugu-Line+Hindi] - TMV
Amavasya (2019) 1080p - WEB-HDRip - x264 [Dual Audio][Telugu-Line+Hindi] - TMV


SINGLE DIRECT FAST LINKS


https://www.heroupload.com/c53f269045822738/Amavasya.2019.WEB-DL.1080p.Telugu.Line+Hindi-TMV.mkv



Buy Premium From My Links & Support Me

Теги: Amavasya

Dear visitor, you are browsing our website as Guest.
We strongly recommend you to register and login to view hidden contents.

Comments:

Add Comments