Set as default Homepage|Bookmark
 
 
» » Nuvvu Thopu Raa (2019) Telugu - 1080p - WEB-HD - AVC - DD5.1 - ESub-BWT
Advertise

Nuvvu Thopu Raa (2019) Telugu - 1080p - WEB-HD - AVC - DD5.1 - ESub-BWT

Author: wroser on 4-06-2019, 00:43
Nuvvu Thopu Raa (2019) Telugu - 1080p - WEB-HD - AVC - DD5.1 - ESub-BWT




Format                      : Matroska
Format version              : Version 4
File size                   : 8.43 GiB
Duration                    : 2 h 20 min
Overall bit rate            : 8 593 kb/s
Encoded date                : UTC 2019-06-02 08:09:41
Writing application         : mkvmerge v33.1.0 ('Primrose') 64-bit
Writing library             : libebml v1.3.7 + libmatroska v1.5.0

Video
ID                          : 1
Format                      : AVC
Format/Info                 : Advanced Video Codec
Format profile              : [email protected]
Format settings             : CABAC / 4 Ref Frames
Format settings, CABAC      : Yes
Format settings, Reference  : 4 frames
Format settings, GOP        : M=4, N=48
Codec ID                    : V_MPEG4/ISO/AVC
Duration                    : 2 h 20 min
Bit rate mode               : Constant
Bit rate                    : 7 951 kb/s
Nominal bit rate            : 10 000 kb/s
Width                       : 1 920 pixels
Height                      : 816 pixels
Display aspect ratio        : 2.35:1
Frame rate mode             : Constant
Frame rate                  : 24.000 FPS
Color space                 : YUV
Chroma subsampling          : 4:2:0
Bit depth                   : 8 bits
Scan type                   : Progressive
Bits/(Pixel*Frame)          : 0.211
Stream size                 : 7.80 GiB (93%)
Language                    : English
Default                     : Yes
Forced                      : No
Color range                 : Limited
Color primaries             : BT.709
Transfer characteristics    : BT.709
Matrix coefficients         : BT.709

Audio
ID                          : 2
Format                      : E-AC-3
Format/Info                 : Enhanced AC-3
Commercial name             : Dolby Digital Plus
Codec ID                    : A_EAC3
Duration                    : 2 h 20 min
Bit rate mode               : Constant
Bit rate                    : 640 kb/s
Channel(s)                  : 6 channels
Channel layout              : L R C LFE Ls Rs
Sampling rate               : 48.0 kHz
Frame rate                  : 31.250 FPS (1536 SPF)
Compression mode            : Lossy
Stream size                 : 643 MiB (7%)
Title                       : Telugu
Language                    : Telugu
Service kind                : Complete Main
Default                     : Yes
Forced                      : No

Text
ID                          : 3
Format                      : UTF-8
Codec ID                    : S_TEXT/UTF8
Codec ID/Info               : UTF-8 Plain Text
Duration                    : 2 h 15 min
Bit rate                    : 84 b/s
Count of elements           : 2230
Stream size                 : 84.0 KiB (0%)
Title                       : English (SDH)
Language                    : English
Default                     : No
Forced                      : No




Nuvvu Thopu Raa (2019) Telugu - 1080p - WEB-HD - AVC - DD5.1 - ESub-BWT
Nuvvu Thopu Raa (2019) Telugu - 1080p - WEB-HD - AVC - DD5.1 - ESub-BWT
Nuvvu Thopu Raa (2019) Telugu - 1080p - WEB-HD - AVC - DD5.1 - ESub-BWT
Nuvvu Thopu Raa (2019) Telugu - 1080p - WEB-HD - AVC - DD5.1 - ESub-BWT
Nuvvu Thopu Raa (2019) Telugu - 1080p - WEB-HD - AVC - DD5.1 - ESub-BWT
Nuvvu Thopu Raa (2019) Telugu - 1080p - WEB-HD - AVC - DD5.1 - ESub-BWT
Nuvvu Thopu Raa (2019) Telugu - 1080p - WEB-HD - AVC - DD5.1 - ESub-BWT


Eid Sale buy Premium with FLAT 50% Discount Now Enjoy Premium Fast Speed and Support US.


SINGLE DIRECT FAST LINKS

https://www.heroupload.com/1668bdf5a64bc7f0/Nuvvu.Thopu.Raa.2019.Telugu.WEB-DL.1080p.AVC.UNTOUCHED.DD5.1.ESub-BWT.mkv


1GB LINKS



https://www.heroupload.com/63f3edd8a9b92cd4/Nuvvu.Thopu.Raa.2019.Telugu.WEB-DL.1080p.AVC.UNTOUCHED.DD5.1.ESub-BWT.part01.rar
https://www.heroupload.com/89914f2f4e9565ab/Nuvvu.Thopu.Raa.2019.Telugu.WEB-DL.1080p.AVC.UNTOUCHED.DD5.1.ESub-BWT.part02.rar
https://www.heroupload.com/2b10af01f42a56a2/Nuvvu.Thopu.Raa.2019.Telugu.WEB-DL.1080p.AVC.UNTOUCHED.DD5.1.ESub-BWT.part03.rar
https://www.heroupload.com/aca46e2e5ae3a1e8/Nuvvu.Thopu.Raa.2019.Telugu.WEB-DL.1080p.AVC.UNTOUCHED.DD5.1.ESub-BWT.part04.rar
https://www.heroupload.com/9faa1fb778c1e75b/Nuvvu.Thopu.Raa.2019.Telugu.WEB-DL.1080p.AVC.UNTOUCHED.DD5.1.ESub-BWT.part05.rar
https://www.heroupload.com/b714bca222c109bc/Nuvvu.Thopu.Raa.2019.Telugu.WEB-DL.1080p.AVC.UNTOUCHED.DD5.1.ESub-BWT.part06.rar
https://www.heroupload.com/4a0cdfc606591c95/Nuvvu.Thopu.Raa.2019.Telugu.WEB-DL.1080p.AVC.UNTOUCHED.DD5.1.ESub-BWT.part07.rar
https://www.heroupload.com/d3ef14e176afd800/Nuvvu.Thopu.Raa.2019.Telugu.WEB-DL.1080p.AVC.UNTOUCHED.DD5.1.ESub-BWT.part08.rar
https://www.heroupload.com/d17a18beafc91bd1/Nuvvu.Thopu.Raa.2019.Telugu.WEB-DL.1080p.AVC.UNTOUCHED.DD5.1.ESub-BWT.part09.rar



Buy Premium From My Links & Support Me

Теги: Nuvvu

Dear visitor, you are browsing our website as Guest.
We strongly recommend you to register and login to view hidden contents.

Comments:

Add Comments