Set as default Homepage|Bookmark
 
 
» » NGK (2019) Telugu - 1080p - PreDVD - x264 - MP3-TMV
Advertise

NGK (2019) Telugu - 1080p - PreDVD - x264 - MP3-TMV

Author: wroser on 31-05-2019, 21:18
NGK (2019) Telugu - 1080p - PreDVD - x264 - MP3-TMV





Format                      : Matroska
Format version              : Version 4
File size                   : 2.32 GiB
Duration                    : 2 h 34 min
Overall bit rate mode       : Variable
Overall bit rate            : 2 147 kb/s
Encoded date                : UTC 2019-05-31 14:35:46
Writing application         : mkvmerge v33.1.0 ('Primrose') 32-bit
Writing library             : libebml v1.3.7 + libmatroska v1.5.0

Video
ID                          : 1
Format                      : AVC
Format/Info                 : Advanced Video Codec
Format profile              : [email protected]
Format settings             : CABAC / 4 Ref Frames
Format settings, CABAC      : Yes
Format settings, Reference  : 4 frames
Codec ID                    : V_MPEG4/ISO/AVC
Duration                    : 2 h 34 min
Bit rate                    : 2 046 kb/s
Width                       : 1 920 pixels
Height                      : 816 pixels
Display aspect ratio        : 2.35:1
Frame rate mode             : Constant
Frame rate                  : 23.976 (24000/1001) FPS
Color space                 : YUV
Chroma subsampling          : 4:2:0
Bit depth                   : 8 bits
Scan type                   : Progressive
Bits/(Pixel*Frame)          : 0.054
Stream size                 : 2.21 GiB (95%)
Writing library             : x264 core 157 r2935 545de2f
Encoding settings           : cabac=1 / ref=1 / deblock=1:0:0 / analyse=0x3:0x113 / me=hex / subme=2 / psy=1 / psy_rd=1.00:0.00 / mixed_ref=0 / me_range=16 / chroma_me=1 / trellis=0 / 8x8dct=1 / cqm=0 / deadzone=21,11 / fast_pskip=1 / chroma_qp_offset=0 / threads=25 / lookahead_threads=6 / sliced_threads=0 / nr=0 / decimate=1 / interlaced=0 / bluray_compat=0 / constrained_intra=0 / bframes=3 / b_pyramid=2 / b_adapt=1 / b_bias=0 / direct=1 / weightb=1 / open_gop=0 / weightp=1 / keyint=240 / keyint_min=23 / scenecut=40 / intra_refresh=0 / rc_lookahead=10 / rc=abr / mbtree=1 / bitrate=2046 / ratetol=1.0 / qcomp=0.60 / qpmin=0 / qpmax=69 / qpstep=4 / ip_ratio=1.40 / aq=1:1.00
Language                    : Telugu
Default                     : Yes
Forced                      : No

Audio
ID                          : 2
Format                      : MPEG Audio
Format version              : Version 1
Format profile              : Layer 3
Format settings             : Joint stereo / MS Stereo
Codec ID                    : A_MPEG/L3
Codec ID/Hint               : MP3
Duration                    : 2 h 34 min
Bit rate mode               : Variable
Bit rate                    : 96.0 kb/s
Channel(s)                  : 2 channels
Sampling rate               : 44.1 kHz
Frame rate                  : 38.281 FPS (1152 SPF)
Compression mode            : Lossy
Stream size                 : 110 MiB (5%)
Writing library             : LAME3.99r
Encoding settings           : -m j -V 4 -q 3 -lowpass 15.1 --abr 96
Language                    : Telugu
Default                     : Yes
Forced                      : No


NGK (2019) Telugu - 1080p - PreDVD - x264 - MP3-TMVNGK (2019) Telugu - 1080p - PreDVD - x264 - MP3-TMVNGK (2019) Telugu - 1080p - PreDVD - x264 - MP3-TMVNGK (2019) Telugu - 1080p - PreDVD - x264 - MP3-TMVNGK (2019) Telugu - 1080p - PreDVD - x264 - MP3-TMVNGK (2019) Telugu - 1080p - PreDVD - x264 - MP3-TMV

SINGLE DIRECT FAST LINKS

https://www.heroupload.com/be6618e3e48fbf5e/NGK.2019.Telugu.PreDVD.1080p.x264-TMV.mkv


700MB LINKS


https://www.heroupload.com/144ceaac05a292bc/NGK.2019.Telugu.PreDVD.1080p.x264-TMV.part1.rar
https://www.heroupload.com/8681d962706c99a8/NGK.2019.Telugu.PreDVD.1080p.x264-TMV.part2.rar
https://www.heroupload.com/50721c9740aa4315/NGK.2019.Telugu.PreDVD.1080p.x264-TMV.part3.rar
https://www.heroupload.com/652a35031edfaf0e/NGK.2019.Telugu.PreDVD.1080p.x264-TMV.part4.rar




Buy Premium From My Links & Support Me

Теги: NGK

Dear visitor, you are browsing our website as Guest.
We strongly recommend you to register and login to view hidden contents.

Comments:

Add Comments