Set as default Homepage|Bookmark
 
 
» » Searching (2018) 1080p - BDRip - x264 - DD5.1 [Multi Audio][Hindi+Tamil+Telugu+Engli]
Advertise

Searching (2018) 1080p - BDRip - x264 - DD5.1 [Multi Audio][Hindi+Tamil+Telugu+Engli]

Author: wroser on 31-05-2019, 20:36
Searching (2018) 1080p - BDRip - x264 - DD5.1 [Multi Audio][Hindi+Tamil+Telugu+Engli]





Format                      : Matroska
Format version              : Version 4
File size                   : 1.85 GiB
Duration                    : 1 h 42 min
Overall bit rate            : 2 587 kb/s
Encoded date                : UTC 2019-05-31 13:30:51
Writing application         : mkvmerge v33.1.0 ('Primrose') 32-bit
Writing library             : libebml v1.3.7 + libmatroska v1.5.0

Video
ID                          : 1
Format                      : AVC
Format/Info                 : Advanced Video Codec
Format profile              : [email protected]
Format settings             : CABAC / 4 Ref Frames
Format settings, CABAC      : Yes
Format settings, Reference  : 4 frames
Codec ID                    : V_MPEG4/ISO/AVC
Duration                    : 1 h 42 min
Bit rate                    : 2 150 kb/s
Width                       : 1 920 pixels
Height                      : 1 072 pixels
Display aspect ratio        : 16:9
Frame rate mode             : Constant
Frame rate                  : 23.976 FPS
Color space                 : YUV
Chroma subsampling          : 4:2:0
Bit depth                   : 8 bits
Scan type                   : Progressive
Bits/(Pixel*Frame)          : 0.044
Stream size                 : 1.54 GiB (83%)
Writing library             : x264 core 152
Encoding settings           : cabac=1 / ref=4 / deblock=1:-1:-1 / analyse=0x3:0x133 / me=umh / subme=9 / psy=1 / psy_rd=1.00:0.15 / mixed_ref=1 / me_range=24 / chroma_me=1 / trellis=2 / 8x8dct=1 / cqm=0 / deadzone=21,11 / fast_pskip=0 / chroma_qp_offset=-3 / threads=12 / lookahead_threads=1 / sliced_threads=0 / nr=0 / decimate=1 / interlaced=0 / bluray_compat=0 / constrained_intra=0 / bframes=3 / b_pyramid=2 / b_adapt=2 / b_bias=0 / direct=3 / weightb=1 / open_gop=0 / weightp=2 / keyint=250 / keyint_min=23 / scenecut=40 / intra_refresh=0 / rc_lookahead=60 / rc=2pass / mbtree=1 / bitrate=2150 / ratetol=1.0 / qcomp=0.60 / qpmin=0 / qpmax=69 / qpstep=4 / cplxblur=20.0 / qblur=0.5 / vbv_maxrate=31250 / vbv_bufsize=31250 / nal_hrd=none / filler=0 / ip_ratio=1.40 / aq=1:1.00
Default                     : Yes
Forced                      : No

Audio #1
ID                          : 2
Format                      : AC-3
Format/Info                 : Audio Coding 3
Commercial name             : Dolby Digital
Codec ID                    : A_AC3
Duration                    : 1 h 42 min
Bit rate mode               : Constant
Bit rate                    : 112 kb/s
Channel(s)                  : 6 channels
Channel layout              : L R C LFE Ls Rs
Sampling rate               : 48.0 kHz
Frame rate                  : 31.250 FPS (1536 SPF)
Bit depth                   : 16 bits
Compression mode            : Lossy
Delay relative to video     : 950 ms
Stream size                 : 82.0 MiB (4%)
Language                    : Tamil
Service kind                : Complete Main
Default                     : Yes
Forced                      : Yes

Audio #2
ID                          : 3
Format                      : AC-3
Format/Info                 : Audio Coding 3
Commercial name             : Dolby Digital
Codec ID                    : A_AC3
Duration                    : 1 h 42 min
Bit rate mode               : Constant
Bit rate                    : 96.0 kb/s
Channel(s)                  : 6 channels
Channel layout              : L R C LFE Ls Rs
Sampling rate               : 48.0 kHz
Frame rate                  : 31.250 FPS (1536 SPF)
Bit depth                   : 16 bits
Compression mode            : Lossy
Delay relative to video     : 950 ms
Stream size                 : 70.3 MiB (4%)
Language                    : Telugu
Service kind                : Complete Main
Default                     : No
Forced                      : No

Audio #3
ID                          : 4
Format                      : AC-3
Format/Info                 : Audio Coding 3
Commercial name             : Dolby Digital
Codec ID                    : A_AC3
Duration                    : 1 h 42 min
Bit rate mode               : Constant
Bit rate                    : 96.0 kb/s
Channel(s)                  : 6 channels
Channel layout              : L R C LFE Ls Rs
Sampling rate               : 48.0 kHz
Frame rate                  : 31.250 FPS (1536 SPF)
Bit depth                   : 16 bits
Compression mode            : Lossy
Delay relative to video     : 950 ms
Stream size                 : 70.3 MiB (4%)
Language                    : Hindi
Service kind                : Complete Main
Default                     : No
Forced                      : No

Audio #4
ID                          : 5
Format                      : AAC LC
Format/Info                 : Advanced Audio Codec Low Complexity
Codec ID                    : A_AAC-2
Duration                    : 1 h 42 min
Bit rate                    : 132 kb/s
Channel(s)                  : 2 channels
Channel layout              : L R
Sampling rate               : 48.0 kHz
Frame rate                  : 46.875 FPS (1024 SPF)
Compression mode            : Lossy
Stream size                 : 95.6 MiB (5%)
Language                    : English
Default                     : No
Forced                      : No

Text #1
ID                          : 6
Format                      : UTF-8
Codec ID                    : S_TEXT/UTF8
Codec ID/Info               : UTF-8 Plain Text
Duration                    : 1 h 36 min
Bit rate                    : 51 b/s
Count of elements           : 1022
Stream size                 : 36.0 KiB (0%)
Language                    : English
Default                     : Yes
Forced                      : No

Text #2
ID                          : 7
Format                      : UTF-8
Codec ID                    : S_TEXT/UTF8
Codec ID/Info               : UTF-8 Plain Text
Duration                    : 1 h 32 min
Bit rate                    : 49 b/s
Count of elements           : 976
Stream size                 : 33.7 KiB (0%)
Language                    : English
Default                     : No
Forced                      : No



Searching (2018) 1080p - BDRip - x264 - DD5.1 [Multi Audio][Hindi+Tamil+Telugu+Engli]
Searching (2018) 1080p - BDRip - x264 - DD5.1 [Multi Audio][Hindi+Tamil+Telugu+Engli]
Searching (2018) 1080p - BDRip - x264 - DD5.1 [Multi Audio][Hindi+Tamil+Telugu+Engli]
Searching (2018) 1080p - BDRip - x264 - DD5.1 [Multi Audio][Hindi+Tamil+Telugu+Engli]


SINGLE DIRECT FAST LINKS


https://www.heroupload.com/a0e1813f35ffc1ac/Searching.2018.1080p.BDRip.Original.Auds.DD5.1-Tamil+Telugu+Hindi+English.mkv




Buy Premium From My Links & Support Me

Теги: Searching

Dear visitor, you are browsing our website as Guest.
We strongly recommend you to register and login to view hidden contents.

Comments:

Add Comments