Set as default Homepage|Bookmark
 
 
» » Thanimai (2019) Tamil - 1080p - WEB-HD - AVC - DD5.1-BWT
Advertise

Thanimai (2019) Tamil - 1080p - WEB-HD - AVC - DD5.1-BWT

Author: wroser on 17-05-2019, 21:12
Thanimai (2019) Tamil - 1080p - WEB-HD - AVC - DD5.1-BWT






Format                      : Matroska
Format version              : Version 4
File size                   : 4.36 GiB
Duration                    : 2 h 7 min
Overall bit rate            : 4 898 kb/s
Encoded date                : UTC 2019-05-17 19:24:12
Writing application         : mkvmerge v33.1.0 ('Primrose') 32-bit
Writing library             : libebml v1.3.7 + libmatroska v1.5.0

Video
ID                          : 1
Format                      : AVC
Format/Info                 : Advanced Video Codec
Format profile              : [email protected]
Format settings             : CABAC / 4 Ref Frames
Format settings, CABAC      : Yes
Format settings, Reference  : 4 frames
Codec ID                    : V_MPEG4/ISO/AVC
Duration                    : 2 h 7 min
Bit rate                    : 4 300 kb/s
Width                       : 1 920 pixels
Height                      : 816 pixels
Display aspect ratio        : 2.35:1
Frame rate mode             : Constant
Frame rate                  : 25.000 FPS
Color space                 : YUV
Chroma subsampling          : 4:2:0
Bit depth                   : 8 bits
Scan type                   : Progressive
Bits/(Pixel*Frame)          : 0.110
Stream size                 : 3.79 GiB (87%)
Writing library             : x264 core 157 r2935 545de2f
Encoding settings           : cabac=1 / ref=1 / deblock=1:0:0 / analyse=0x3:0x113 / me=hex / subme=2 / psy=1 / psy_rd=1.00:0.00 / mixed_ref=0 / me_range=16 / chroma_me=1 / trellis=0 / 8x8dct=1 / cqm=0 / deadzone=21,11 / fast_pskip=1 / chroma_qp_offset=0 / threads=25 / lookahead_threads=6 / sliced_threads=0 / nr=0 / decimate=1 / interlaced=0 / bluray_compat=0 / constrained_intra=0 / bframes=3 / b_pyramid=2 / b_adapt=1 / b_bias=0 / direct=1 / weightb=1 / open_gop=0 / weightp=1 / keyint=250 / keyint_min=25 / scenecut=40 / intra_refresh=0 / rc_lookahead=10 / rc=abr / mbtree=1 / bitrate=4300 / ratetol=1.0 / qcomp=0.60 / qpmin=0 / qpmax=69 / qpstep=4 / ip_ratio=1.40 / aq=1:1.00
Default                     : Yes
Forced                      : No

Audio
ID                          : 2
Format                      : AC-3
Format/Info                 : Audio Coding 3
Commercial name             : Dolby Digital
Codec ID                    : A_AC3
Duration                    : 2 h 7 min
Bit rate mode               : Constant
Bit rate                    : 640 kb/s
Channel(s)                  : 6 channels
Channel layout              : L R C LFE Ls Rs
Sampling rate               : 44.1 kHz
Frame rate                  : 28.711 FPS (1536 SPF)
Bit depth                   : 16 bits
Compression mode            : Lossy
Stream size                 : 583 MiB (13%)
Language                    : Tamil
Service kind                : Complete Main
Default                     : Yes
Forced                      : No



Thanimai (2019) Tamil - 1080p - WEB-HD - AVC - DD5.1-BWTThanimai (2019) Tamil - 1080p - WEB-HD - AVC - DD5.1-BWTThanimai (2019) Tamil - 1080p - WEB-HD - AVC - DD5.1-BWTThanimai (2019) Tamil - 1080p - WEB-HD - AVC - DD5.1-BWTThanimai (2019) Tamil - 1080p - WEB-HD - AVC - DD5.1-BWT

SINGLE DIRECT FAST LINKS

https://www.heroupload.com/43f266eedb017a17/Thanimai.2019.Tamil.WEB-HD.1080p.AVC.UNTOUCHED.DD5.1-BWT.mkv


1GB LINKS



https://www.heroupload.com/22a1b960c5a209d7/Thanimai.2019.Tamil.WEB-HD.1080p.AVC.UNTOUCHED.DD5.1-BWT.part1.rar
https://www.heroupload.com/3ffa1ad6987dd869/Thanimai.2019.Tamil.WEB-HD.1080p.AVC.UNTOUCHED.DD5.1-BWT.part2.rar
https://www.heroupload.com/338ab7ec1f584f6a/Thanimai.2019.Tamil.WEB-HD.1080p.AVC.UNTOUCHED.DD5.1-BWT.part3.rar
https://www.heroupload.com/5a27d3b9163af68b/Thanimai.2019.Tamil.WEB-HD.1080p.AVC.UNTOUCHED.DD5.1-BWT.part4.rar
https://www.heroupload.com/7b611e23f15a15a3/Thanimai.2019.Tamil.WEB-HD.1080p.AVC.UNTOUCHED.DD5.1-BWT.part5.rar




Buy Premium From My Links & Support Me

Теги: Thanimai

Dear visitor, you are browsing our website as Guest.
We strongly recommend you to register and login to view hidden contents.

Comments:

Add Comments