Set as default Homepage|Bookmark
 
 
» » Hamid (2019) Hindi - 1080p - WEB-DL - AVC - DD5.1 - Esubs-BWT Exclusive
Advertise

Hamid (2019) Hindi - 1080p - WEB-DL - AVC - DD5.1 - Esubs-BWT Exclusive

Author: wroser on 15-05-2019, 15:49
Hamid (2019) Hindi - 1080p - WEB-DL - AVC - DD5.1 - Esubs-BWT Exclusive





Format                      : Matroska
Format version              : Version 4
File size                   : 1.89 GiB
Duration                    : 1 h 48 min
Overall bit rate mode       : Variable
Overall bit rate            : 2 498 kb/s
Encoded date                : UTC 2019-05-15 15:21:37
Writing application         : mkvmerge v33.1.0 ('Primrose') 32-bit
Writing library             : libebml v1.3.7 + libmatroska v1.5.0

Video
ID                          : 1
Format                      : AVC
Format/Info                 : Advanced Video Codec
Format profile              : [email protected]
Format settings             : CABAC / 4 Ref Frames
Format settings, CABAC      : Yes
Format settings, Reference  : 4 frames
Codec ID                    : V_MPEG4/ISO/AVC
Duration                    : 1 h 48 min
Bit rate mode               : Variable
Bit rate                    : 1 857 kb/s
Maximum bit rate            : 20.0 Mb/s
Width                       : 1 920 pixels
Height                      : 1 080 pixels
Display aspect ratio        : 16:9
Frame rate mode             : Constant
Frame rate                  : 24.000 FPS
Color space                 : YUV
Chroma subsampling          : 4:2:0
Bit depth                   : 8 bits
Scan type                   : Progressive
Bits/(Pixel*Frame)          : 0.037
Stream size                 : 1.40 GiB (74%)
Writing library             : x264 core 148 r2715 7e75228
Encoding settings           : cabac=1 / ref=4 / deblock=1:0:0 / analyse=0x3:0x111 / me=umh / subme=10 / psy=1 / psy_rd=1.00:0.00 / mixed_ref=1 / me_range=120 / chroma_me=1 / trellis=2 / 8x8dct=1 / cqm=0 / deadzone=21,11 / fast_pskip=1 / chroma_qp_offset=-2 / threads=8 / lookahead_threads=2 / sliced_threads=0 / nr=0 / decimate=1 / interlaced=0 / bluray_compat=0 / stitchable=1 / constrained_intra=0 / bframes=16 / b_pyramid=2 / b_adapt=2 / b_bias=0 / direct=3 / weightb=1 / open_gop=0 / weightp=2 / keyint=240 / keyint_min=121 / scenecut=0 / intra_refresh=0 / rc_lookahead=240 / rc=crf / mbtree=1 / crf=20.0 / qcomp=0.50 / qpmin=6 / qpmax=51 / qpstep=4 / vbv_maxrate=20000 / vbv_bufsize=25000 / crf_max=0.0 / nal_hrd=vbr / filler=0 / ip_ratio=1.40 / aq=1:0.80
Language                    : Hindi
Default                     : Yes
Forced                      : No

Audio
ID                          : 2
Format                      : E-AC-3
Format/Info                 : Enhanced AC-3
Commercial name             : Dolby Digital Plus
Codec ID                    : A_EAC3
Duration                    : 1 h 48 min
Bit rate mode               : Constant
Bit rate                    : 640 kb/s
Channel(s)                  : 6 channels
Channel layout              : L R C LFE Ls Rs
Sampling rate               : 48.0 kHz
Frame rate                  : 31.250 FPS (1536 SPF)
Compression mode            : Lossy
Stream size                 : 495 MiB (26%)
Language                    : Hindi
Service kind                : Complete Main
Default                     : Yes
Forced                      : No

Text
ID                          : 3
Format                      : UTF-8
Codec ID                    : S_TEXT/UTF8
Codec ID/Info               : UTF-8 Plain Text
Duration                    : 1 h 42 min
Bit rate                    : 35 b/s
Count of elements           : 945
Stream size                 : 26.6 KiB (0%)
Language                    : English
Default                     : No
Forced                      : No




Hamid (2019) Hindi - 1080p - WEB-DL - AVC - DD5.1 - Esubs-BWT Exclusive
Hamid (2019) Hindi - 1080p - WEB-DL - AVC - DD5.1 - Esubs-BWT Exclusive
Hamid (2019) Hindi - 1080p - WEB-DL - AVC - DD5.1 - Esubs-BWT Exclusive
Hamid (2019) Hindi - 1080p - WEB-DL - AVC - DD5.1 - Esubs-BWT Exclusive
Hamid (2019) Hindi - 1080p - WEB-DL - AVC - DD5.1 - Esubs-BWT Exclusive

SINGLE DIRECT FAST LINKS

https://www.heroupload.com/1f632488836676c7/Hamid.2019.Hindi.WEB-DL.1080p.AVC.DD5.1.ESub-BWT.mkv


Buy Premium From My Links & Support Me

Теги: Hamid

Dear visitor, you are browsing our website as Guest.
We strongly recommend you to register and login to view hidden contents.

Comments:

Add Comments