Set as default Homepage|Bookmark
 
 
» » Mithai (2019) Telugu - 1080p - HDRip - x264 - AAC - ESub-BWT
Advertise

Mithai (2019) Telugu - 1080p - HDRip - x264 - AAC - ESub-BWT

Author: wroser on 15-05-2019, 15:02
Mithai (2019) Telugu - 1080p - HDRip - x264 - AAC - ESub-BWT





Format                      : Matroska
Format version              : Version 4
File size                   : 2.58 GiB
Duration                    : 2 h 17 min
Overall bit rate            : 2 681 kb/s
Encoded date                : UTC 2019-05-15 00:18:25
Writing application         : mkvmerge v33.1.0 ('Primrose') 32-bit
Writing library             : libebml v1.3.7 + libmatroska v1.5.0

Video
ID                          : 1
Format                      : AVC
Format/Info                 : Advanced Video Codec
Format profile              : [email protected]
Format settings             : CABAC / 4 Ref Frames
Format settings, CABAC      : Yes
Format settings, Reference  : 4 frames
Codec ID                    : V_MPEG4/ISO/AVC
Duration                    : 2 h 17 min
Bit rate                    : 2 500 kb/s
Width                       : 1 920 pixels
Height                      : 816 pixels
Display aspect ratio        : 2.35:1
Frame rate mode             : Constant
Frame rate                  : 24.000 FPS
Color space                 : YUV
Chroma subsampling          : 4:2:0
Bit depth                   : 8 bits
Scan type                   : Progressive
Bits/(Pixel*Frame)          : 0.066
Stream size                 : 2.39 GiB (93%)
Writing library             : x264 core 155 r2901 7d0ff22
Encoding settings           : cabac=1 / ref=1 / deblock=1:0:0 / analyse=0x3:0x113 / me=hex / subme=2 / psy=1 / psy_rd=1.00:0.00 / mixed_ref=0 / me_range=16 / chroma_me=1 / trellis=0 / 8x8dct=1 / cqm=0 / deadzone=21,11 / fast_pskip=1 / chroma_qp_offset=0 / threads=12 / lookahead_threads=4 / sliced_threads=0 / nr=0 / decimate=1 / interlaced=0 / bluray_compat=0 / constrained_intra=0 / bframes=3 / b_pyramid=2 / b_adapt=1 / b_bias=0 / direct=1 / weightb=1 / open_gop=0 / weightp=1 / keyint=240 / keyint_min=24 / scenecut=40 / intra_refresh=0 / rc_lookahead=10 / rc=abr / mbtree=1 / bitrate=2500 / ratetol=1.0 / qcomp=0.60 / qpmin=0 / qpmax=69 / qpstep=4 / vbv_maxrate=25000 / vbv_bufsize=31250 / nal_hrd=none / filler=0 / ip_ratio=1.40 / aq=1:1.00
Language                    : Telugu
Default                     : Yes
Forced                      : No
Color range                 : Limited
Color primaries             : BT.601 NTSC
Transfer characteristics    : BT.709
Matrix coefficients         : BT.601

Audio
ID                          : 2
Format                      : AAC LC
Format/Info                 : Advanced Audio Codec Low Complexity
Codec ID                    : A_AAC-2
Duration                    : 2 h 17 min
Bit rate                    : 192 kb/s
Channel(s)                  : 2 channels
Channel layout              : L R
Sampling rate               : 48.0 kHz
Frame rate                  : 46.875 FPS (1024 SPF)
Compression mode            : Lossy
Stream size                 : 190 MiB (7%)
Language                    : Telugu
Default                     : Yes
Forced                      : No

Text
ID                          : 3
Format                      : UTF-8
Codec ID                    : S_TEXT/UTF8
Codec ID/Info               : UTF-8 Plain Text
Duration                    : 2 h 14 min
Bit rate                    : 57 b/s
Count of elements           : 1798
Stream size                 : 57.1 KiB (0%)
Language                    : English
Default                     : No
Forced                      : No



Mithai (2019) Telugu - 1080p - HDRip - x264 - AAC - ESub-BWTMithai (2019) Telugu - 1080p - HDRip - x264 - AAC - ESub-BWTMithai (2019) Telugu - 1080p - HDRip - x264 - AAC - ESub-BWTMithai (2019) Telugu - 1080p - HDRip - x264 - AAC - ESub-BWTMithai (2019) Telugu - 1080p - HDRip - x264 - AAC - ESub-BWT

SINGLE DIRECT FAST LINKS


https://www.heroupload.com/dce4428ad333a08c/Mithai.2019.Telugu.HDRip.1080p.x264.AAC.ESub-BWT.mkv


Buy Premium From My Links & Support Me

Теги: Mithai

Dear visitor, you are browsing our website as Guest.
We strongly recommend you to register and login to view hidden contents.

Comments:

Add Comments