Set as default Homepage|Bookmark
 
 
» » Pantham (2018) 1080p - UNTOUCHED - WEB-DL - AVC - AAC-BWT
Advertise

Pantham (2018) 1080p - UNTOUCHED - WEB-DL - AVC - AAC-BWT

Author: wroser on 10-05-2019, 15:31
Pantham (2018) 1080p - UNTOUCHED - WEB-DL - AVC - AAC-BWT





Format                      : Matroska
Format version              : Version 4
File size                   : 5.22 GiB
Duration                    : 2 h 23 min
Overall bit rate            : 5 223 kb/s
Encoded date                : UTC 2019-05-10 09:22:54
Writing application         : mkvmerge v33.1.0 ('Primrose') 32-bit
Writing library             : libebml v1.3.7 + libmatroska v1.5.0

Video
ID                          : 1
Format                      : AVC
Format/Info                 : Advanced Video Codec
Format profile              : [email protected]
Format settings             : 1 Ref Frames
Format settings, CABAC      : No
Format settings, Reference  : 1 frame
Codec ID                    : V_MPEG4/ISO/AVC
Duration                    : 2 h 23 min
Bit rate mode               : Constant
Bit rate                    : 5 120 kb/s
Width                       : 1 920 pixels
Height                      : 1 080 pixels
Display aspect ratio        : 16:9
Frame rate mode             : Constant
Frame rate                  : 25.000 FPS
Color space                 : YUV
Chroma subsampling          : 4:2:0
Bit depth                   : 8 bits
Scan type                   : Progressive
Bits/(Pixel*Frame)          : 0.099
Stream size                 : 5.09 GiB (98%)
Language                    : Telugu
Default                     : Yes
Forced                      : No

Audio
ID                          : 2
Format                      : AAC LC
Format/Info                 : Advanced Audio Codec Low Complexity
Codec ID                    : A_AAC-2
Duration                    : 2 h 23 min
Bit rate                    : 126 kb/s
Channel(s)                  : 2 channels
Channel layout              : L R
Sampling rate               : 44.1 kHz
Frame rate                  : 43.066 FPS (1024 SPF)
Compression mode            : Lossy
Stream size                 : 129 MiB (2%)
Language                    : Telugu
Default                     : Yes
Forced                      : No


Pantham (2018) 1080p - UNTOUCHED - WEB-DL - AVC - AAC-BWT
Pantham (2018) 1080p - UNTOUCHED - WEB-DL - AVC - AAC-BWT
Pantham (2018) 1080p - UNTOUCHED - WEB-DL - AVC - AAC-BWT
Pantham (2018) 1080p - UNTOUCHED - WEB-DL - AVC - AAC-BWT
Pantham (2018) 1080p - UNTOUCHED - WEB-DL - AVC - AAC-BWT
Pantham (2018) 1080p - UNTOUCHED - WEB-DL - AVC - AAC-BWT
Pantham (2018) 1080p - UNTOUCHED - WEB-DL - AVC - AAC-BWT
Pantham (2018) 1080p - UNTOUCHED - WEB-DL - AVC - AAC-BWT
Pantham (2018) 1080p - UNTOUCHED - WEB-DL - AVC - AAC-BWT
Pantham (2018) 1080p - UNTOUCHED - WEB-DL - AVC - AAC-BWT
Pantham (2018) 1080p - UNTOUCHED - WEB-DL - AVC - AAC-BWT
Pantham (2018) 1080p - UNTOUCHED - WEB-DL - AVC - AAC-BWT


SINGLE DIRECT FAST LINKS

https://www.heroupload.com/4604b083a4270420/Pantham.2018.Telugu.WEB-DL.1080p.AVC.UNTOUCHED-BWT.mkv


1GB LINKS



https://www.heroupload.com/32ca7434d890d5d7/Pantham.2018.Telugu.WEB-DL.1080p.AVC.UNTOUCHED-BWT.part1.rar
https://www.heroupload.com/3086d1812451d653/Pantham.2018.Telugu.WEB-DL.1080p.AVC.UNTOUCHED-BWT.part2.rar
https://www.heroupload.com/d1334ce1b8b8d161/Pantham.2018.Telugu.WEB-DL.1080p.AVC.UNTOUCHED-BWT.part3.rar
https://www.heroupload.com/2e82e0e1bbb005ee/Pantham.2018.Telugu.WEB-DL.1080p.AVC.UNTOUCHED-BWT.part4.rar
https://www.heroupload.com/a44a49124af6d2ea/Pantham.2018.Telugu.WEB-DL.1080p.AVC.UNTOUCHED-BWT.part5.rar
https://www.heroupload.com/d75d876dfec1fdd6/Pantham.2018.Telugu.WEB-DL.1080p.AVC.UNTOUCHED-BWT.part6.rar


Buy Premium From My Links & Support Me

Теги: Pantham

Dear visitor, you are browsing our website as Guest.
We strongly recommend you to register and login to view hidden contents.

Comments:

Add Comments