Set as default Homepage|Bookmark
 
 
» » Avengers Endgame (2019) 720p HDCAM-Rip x264 [Multi Audios][Hindi+Telugu+Tamil+Englis]
Advertise

Avengers Endgame (2019) 720p HDCAM-Rip x264 [Multi Audios][Hindi+Telugu+Tamil+Englis]

Author: wroser on 26-04-2019, 13:32
Avengers Endgame (2019) 720p HDCAM-Rip x264 [Multi Audios][Hindi+Telugu+Tamil+Englis]






Format                                   : Matroska
Format version                           : Version 4
File size                                : 1.27 GiB
Duration                                 : 2 h 53 min
Overall bit rate mode                    : Variable
Overall bit rate                         : 1 045 kb/s
Encoded date                             : UTC 2019-04-26 13:22:30
Writing application                      : mkvmerge v29.0.0 ('Like It Or Not') 32-bit
Writing library                          : libebml v1.3.6 + libmatroska v1.4.9

Video
ID                                       : 1
Format                                   : AVC
Format/Info                              : Advanced Video Codec
Format profile                           : [email protected]
Format settings                          : CABAC / 4 Ref Frames
Format settings, CABAC                   : Yes
Format settings, RefFrames               : 4 frames
Codec ID                                 : V_MPEG4/ISO/AVC
Duration                                 : 2 h 53 min
Bit rate                                 : 684 kb/s
Width                                    : 1 280 pixels
Height                                   : 544 pixels
Display aspect ratio                     : 2.35:1
Frame rate mode                          : Constant
Frame rate                               : 29.970 FPS
Color space                              : YUV
Chroma subsampling                       : 4:2:0
Bit depth                                : 8 bits
Scan type                                : Progressive
Bits/(Pixel*Frame)                       : 0.033
Stream size                              : 848 MiB (65%)
Writing library                          : x264 core 155 r2901 7d0ff22
Encoding settings                        : cabac=1 / ref=1 / deblock=1:0:0 / analyse=0x3:0x113 / me=hex / subme=2 / psy=1 / psy_rd=1.00:0.00 / mixed_ref=0 / me_range=16 / chroma_me=1 / trellis=0 / 8x8dct=1 / cqm=0 / deadzone=21,11 / fast_pskip=1 / chroma_qp_offset=0 / threads=17 / lookahead_threads=4 / sliced_threads=0 / nr=0 / decimate=1 / interlaced=0 / bluray_compat=0 / constrained_intra=0 / bframes=3 / b_pyramid=2 / b_adapt=1 / b_bias=0 / direct=1 / weightb=1 / open_gop=0 / weightp=1 / keyint=300 / keyint_min=30 / scenecut=40 / intra_refresh=0 / rc_lookahead=10 / rc=abr / mbtree=1 / bitrate=684 / ratetol=1.0 / qcomp=0.60 / qpmin=0 / qpmax=69 / qpstep=4 / vbv_maxrate=17500 / vbv_bufsize=17500 / nal_hrd=none / filler=0 / ip_ratio=1.40 / aq=1:1.00
Default                                  : Yes
Forced                                   : No
Color range                              : Limited
Color primaries                          : BT.709
Transfer characteristics                 : BT.709
Matrix coefficients                      : BT.709

Audio #1
ID                                       : 2
Format                                   : MPEG Audio
Format version                           : Version 1
Format profile                           : Layer 3
Format settings                          : Joint stereo / MS Stereo
Codec ID                                 : A_MPEG/L3
Codec ID/Hint                            : MP3
Duration                                 : 2 h 53 min
Bit rate mode                            : Constant
Bit rate                                 : 96.0 kb/s
Channel(s)                               : 2 channels
Sampling rate                            : 32.0 kHz
Frame rate                               : 27.778 FPS (1152 SPF)
Compression mode                         : Lossy
Delay relative to video                  : -44 ms
Stream size                              : 119 MiB (9%)
Language                                 : Telugu
Default                                  : No
Forced                                   : No

Audio #2
ID                                       : 3
Format                                   : MPEG Audio
Format version                           : Version 1
Format profile                           : Layer 3
Format settings                          : Joint stereo / MS Stereo
Codec ID                                 : A_MPEG/L3
Codec ID/Hint                            : MP3
Duration                                 : 2 h 53 min
Bit rate mode                            : Constant
Bit rate                                 : 96.0 kb/s
Channel(s)                               : 2 channels
Sampling rate                            : 48.0 kHz
Frame rate                               : 41.667 FPS (1152 SPF)
Compression mode                         : Lossy
Delay relative to video                  : -21 ms
Stream size                              : 119 MiB (9%)
Language                                 : Tamil
Default                                  : No
Forced                                   : No

Audio #3
ID                                       : 4
Format                                   : MPEG Audio
Format version                           : Version 1
Format profile                           : Layer 3
Format settings                          : Joint stereo / MS Stereo
Codec ID                                 : A_MPEG/L3
Codec ID/Hint                            : MP3
Duration                                 : 2 h 53 min
Bit rate mode                            : Variable
Bit rate                                 : 86.3 kb/s
Nominal bit rate                         : 96.0 kb/s
Channel(s)                               : 2 channels
Sampling rate                            : 44.1 kHz
Frame rate                               : 38.281 FPS (1152 SPF)
Compression mode                         : Lossy
Delay relative to video                  : -44 ms
Stream size                              : 107 MiB (8%)
Writing library                          : LAME3.99r
Encoding settings                        : -m j -V 4 -q 3 -lowpass 15.1 --abr 96
Language                                 : Hindi
Default                                  : Yes
Forced                                   : No

Audio #4
ID                                       : 5
Format                                   : MPEG Audio
Format version                           : Version 1
Format profile                           : Layer 3
Format settings                          : Joint stereo / MS Stereo
Codec ID                                 : A_MPEG/L3
Codec ID/Hint                            : MP3
Duration                                 : 2 h 53 min
Bit rate mode                            : Constant
Bit rate                                 : 80.0 kb/s
Channel(s)                               : 2 channels
Sampling rate                            : 48.0 kHz
Frame rate                               : 41.667 FPS (1152 SPF)
Compression mode                         : Lossy
Delay relative to video                  : -21 ms
Stream size                              : 99.2 MiB (8%)
Language                                 : English
Default                                  : No
Forced                                   : No



Avengers Endgame (2019) 720p HDCAM-Rip x264 [Multi Audios][Hindi+Telugu+Tamil+Englis]Avengers Endgame (2019) 720p HDCAM-Rip x264 [Multi Audios][Hindi+Telugu+Tamil+Englis]Avengers Endgame (2019) 720p HDCAM-Rip x264 [Multi Audios][Hindi+Telugu+Tamil+Englis]Avengers Endgame (2019) 720p HDCAM-Rip x264 [Multi Audios][Hindi+Telugu+Tamil+Englis]Avengers Endgame (2019) 720p HDCAM-Rip x264 [Multi Audios][Hindi+Telugu+Tamil+Englis]Avengers Endgame (2019) 720p HDCAM-Rip x264 [Multi Audios][Hindi+Telugu+Tamil+Englis]Avengers Endgame (2019) 720p HDCAM-Rip x264 [Multi Audios][Hindi+Telugu+Tamil+Englis]Avengers Endgame (2019) 720p HDCAM-Rip x264 [Multi Audios][Hindi+Telugu+Tamil+Englis]Avengers Endgame (2019) 720p HDCAM-Rip x264 [Multi Audios][Hindi+Telugu+Tamil+Englis]

SINGLE DIRECT FAST LINKS

https://www.heroupload.com/27079e787b086582/Avengers.Endgame.2019.New.HDCAM-Rip.720p.Lines.Hindi+Telugu+Tamil+English.mkv




Buy Premium From My Links & Support Me

Теги: Avengers

Dear visitor, you are browsing our website as Guest.
We strongly recommend you to register and login to view hidden contents.

Comments:

Add Comments
Reply
  • Group: Guests
  • ICQ:
  • Registration: --
  • Status:
  • 0 Comment
  • 0 Article
^
这是该品牌历史上的热门电影。我也是观看它的人。essay shark 评论 分享很多观看链接,但我更喜欢看电影。