Set as default Homepage|Bookmark
 
 
» » 2.0 (2018) HiNDi Original - 1080p - HDTV - AVC - DD5.1-BWT Exclusive
Advertise

2.0 (2018) HiNDi Original - 1080p - HDTV - AVC - DD5.1-BWT Exclusive

Author: wroser on 20-04-2019, 23:52
2.0 (2018) HiNDi Original - 1080p - HDTV - AVC - DD5.1-BWT Exclusive




Format                                   : Matroska
Format version                           : Version 4
File size                                : 4.01 GiB
Duration                                 : 2 h 24 min
Overall bit rate                         : 3 985 kb/s
Encoded date                             : UTC 2019-04-20 22:16:43
Writing application                      : mkvmerge v29.0.0 ('Like It Or Not') 32-bit
Writing library                          : libebml v1.3.6 + libmatroska v1.4.9

Video
ID                                       : 1
Format                                   : AVC
Format/Info                              : Advanced Video Codec
Format profile                           : [email protected]
Format settings                          : CABAC / 4 Ref Frames
Format settings, CABAC                   : Yes
Format settings, RefFrames               : 4 frames
Codec ID                                 : V_MPEG4/ISO/AVC
Duration                                 : 2 h 24 min
Bit rate                                 : 3 536 kb/s
Width                                    : 1 920 pixels
Height                                   : 1 080 pixels
Display aspect ratio                     : 16:9
Frame rate mode                          : Variable
Frame rate                               : 46.640 FPS
Original frame rate                      : 25.000 FPS
Color space                              : YUV
Chroma subsampling                       : 4:2:0
Bit depth                                : 8 bits
Scan type                                : Interlaced
Scan type, store method                  : Separated fields
Scan order                               : Top Field First
Bits/(Pixel*Frame)                       : 0.037
Stream size                              : 3.56 GiB (89%)
Default                                  : Yes
Forced                                   : No
Color range                              : Limited
Color primaries                          : BT.709
Transfer characteristics                 : BT.709
Matrix coefficients                      : BT.709

Audio #1
ID                                       : 2
Format                                   : AC-3
Format/Info                              : Audio Coding 3
Commercial name                          : Dolby Digital
Codec ID                                 : A_AC3
Duration                                 : 2 h 24 min
Bit rate mode                            : Constant
Bit rate                                 : 384 kb/s
Channel(s)                               : 6 channels
Channel layout                           : L R C LFE Ls Rs
Sampling rate                            : 48.0 kHz
Frame rate                               : 31.250 FPS (1536 SPF)
Bit depth                                : 16 bits
Compression mode                         : Lossy
Delay relative to video                  : 66 ms
Stream size                              : 369 MiB (9%)
Title                                    : Dolby Digital 6CH
Language                                 : Hindi
Service kind                             : Complete Main
Default                                  : Yes
Forced                                   : No

Audio #2
ID                                       : 3
Format                                   : MPEG Audio
Format version                           : Version 1
Format profile                           : Layer 2
Codec ID                                 : A_MPEG/L2
Codec ID/Hint                            : MP2
Duration                                 : 2 h 24 min
Bit rate mode                            : Constant
Bit rate                                 : 96.0 kb/s
Channel(s)                               : 2 channels
Sampling rate                            : 48.0 kHz
Frame rate                               : 38.074 FPS (1261 SPF)
Compression mode                         : Lossy
Delay relative to video                  : 56 ms
Stream size                              : 90.4 MiB (2%)
Title                                    : 2.0 2CH
Language                                 : Hindi
Default                                  : No
Forced                                   : No




2.0 (2018) HiNDi Original - 1080p - HDTV - AVC - DD5.1-BWT Exclusive
2.0 (2018) HiNDi Original - 1080p - HDTV - AVC - DD5.1-BWT Exclusive
2.0 (2018) HiNDi Original - 1080p - HDTV - AVC - DD5.1-BWT Exclusive
2.0 (2018) HiNDi Original - 1080p - HDTV - AVC - DD5.1-BWT Exclusive
2.0 (2018) HiNDi Original - 1080p - HDTV - AVC - DD5.1-BWT Exclusive
2.0 (2018) HiNDi Original - 1080p - HDTV - AVC - DD5.1-BWT Exclusive
2.0 (2018) HiNDi Original - 1080p - HDTV - AVC - DD5.1-BWT Exclusive
2.0 (2018) HiNDi Original - 1080p - HDTV - AVC - DD5.1-BWT Exclusive
2.0 (2018) HiNDi Original - 1080p - HDTV - AVC - DD5.1-BWT Exclusive
2.0 (2018) HiNDi Original - 1080p - HDTV - AVC - DD5.1-BWT Exclusive


SINGLE DIRECT FAST LINKS

https://www.heroupload.com/96df2043e6a68ad3/2.0.2018.Hindi.1080p.Untouched.HDTVRip.AVC.DDP.5.1.Exclusive.mkv


1GB LINKS


https://www.heroupload.com/fdc6f7b46a26c896/2.0.2018.Hindi.1080p.Untouched.HDTVRip.AVC.DDP.5.1.Exclusive.part1.rar
https://www.heroupload.com/a5d9b093f4f74736/2.0.2018.Hindi.1080p.Untouched.HDTVRip.AVC.DDP.5.1.Exclusive.part2.rar
https://www.heroupload.com/dfe6df90c754b373/2.0.2018.Hindi.1080p.Untouched.HDTVRip.AVC.DDP.5.1.Exclusive.part3.rar
https://www.heroupload.com/5a2f96770c3a3633/2.0.2018.Hindi.1080p.Untouched.HDTVRip.AVC.DDP.5.1.Exclusive.part4.rar
https://www.heroupload.com/640c13bb64946b95/2.0.2018.Hindi.1080p.Untouched.HDTVRip.AVC.DDP.5.1.Exclusive.part5.rar


Buy Premium From My Links & Support Me

Теги: 2

Dear visitor, you are browsing our website as Guest.
We strongly recommend you to register and login to view hidden contents.

Comments:

Add Comments