Set as default Homepage|Bookmark
 
 
» » Sakala Kala Vallabhudu (2019) Telugu - 1080p - WEB-DL - AVC - DD5.1 - ESubs-BWT
Advertise

Sakala Kala Vallabhudu (2019) Telugu - 1080p - WEB-DL - AVC - DD5.1 - ESubs-BWT

Author: wroser on 14-04-2019, 10:50
Sakala Kala Vallabhudu (2019) Telugu - 1080p - WEB-DL - AVC - DD5.1 - ESubs-BWT





ormat                                   : Matroska
Format version                           : Version 4
File size                                : 4.98 GiB
Duration                                 : 2 h 3 min
Overall bit rate                         : 5 785 kb/s
Encoded date                             : UTC 2019-04-13 18:47:39
Writing application                      : mkvmerge v25.0.0 ('Prog Noir') 32-bit
Writing library                          : libebml v1.3.6 + libmatroska v1.4.9

Video
ID                                       : 1
Format                                   : AVC
Format/Info                              : Advanced Video Codec
Format profile                           : High@L4
Format settings                          : CABAC / 4 Ref Frames
Format settings, CABAC                   : Yes
Format settings, RefFrames               : 4 frames
Codec ID                                 : V_MPEG4/ISO/AVC
Duration                                 : 2 h 3 min
Bit rate                                 : 5 143 kb/s
Width                                    : 1 920 pixels
Height                                   : 1 080 pixels
Display aspect ratio                     : 16:9
Frame rate mode                          : Constant
Frame rate                               : 24.000 FPS
Color space                              : YUV
Chroma subsampling                       : 4:2:0
Bit depth                                : 8 bits
Scan type                                : Progressive
Bits/(Pixel*Frame)                       : 0.103
Stream size                              : 4.43 GiB (89%)
Default                                  : Yes
Forced                                   : No
Color range                              : Limited
Color primaries                          : BT.709
Transfer characteristics                 : BT.709
Matrix coefficients                      : BT.709

Audio
ID                                       : 2
Format                                   : E-AC-3
Format/Info                              : Enhanced AC-3
Commercial name                          : Dolby Digital Plus
Codec ID                                 : A_EAC3
Duration                                 : 2 h 3 min
Bit rate mode                            : Constant
Bit rate                                 : 640 kb/s
Channel(s)                               : 6 channels
Channel layout                           : L R C LFE Ls Rs
Sampling rate                            : 48.0 kHz
Frame rate                               : 31.250 FPS (1536 SPF)
Compression mode                         : Lossy
Stream size                              : 564 MiB (11%)
Title                                    : Telugu
Language                                 : Telugu
Service kind                             : Complete Main
Default                                  : No
Forced                                   : No

Text
ID                                       : 3
Format                                   : UTF-8
Codec ID                                 : S_TEXT/UTF8
Codec ID/Info                            : UTF-8 Plain Text
Duration                                 : 1 h 56 min
Bit rate                                 : 72 b/s
Count of elements                        : 1461
Stream size                              : 61.7 KiB (0%)
Title                                    : English [SDH]
Language                                 : English
Default                                  : No
Forced                                   : No




Sakala Kala Vallabhudu (2019) Telugu - 1080p - WEB-DL - AVC - DD5.1 - ESubs-BWTSakala Kala Vallabhudu (2019) Telugu - 1080p - WEB-DL - AVC - DD5.1 - ESubs-BWTSakala Kala Vallabhudu (2019) Telugu - 1080p - WEB-DL - AVC - DD5.1 - ESubs-BWTSakala Kala Vallabhudu (2019) Telugu - 1080p - WEB-DL - AVC - DD5.1 - ESubs-BWTSakala Kala Vallabhudu (2019) Telugu - 1080p - WEB-DL - AVC - DD5.1 - ESubs-BWTSakala Kala Vallabhudu (2019) Telugu - 1080p - WEB-DL - AVC - DD5.1 - ESubs-BWT

SINGLE DIRECT FAST LINKS


https://www.heroupload.com/b78634bd0e984e16/Sakala.Kala.Vallabhudu.2019.Telugu.WEB-DL.1080p.AVC.UNTOUCHED.DD5.1.ESub-BWT.mkv


1GB LINKS
https://www.heroupload.com/8917b4f9ef05a78f/Sakala.Kala.Vallabhudu.2019.Telugu.WEB-DL.1080p.AVC.UNTOUCHED.DD5.1.ESub-BWT.part1.rar
https://www.heroupload.com/904f96bb654dd6ae/Sakala.Kala.Vallabhudu.2019.Telugu.WEB-DL.1080p.AVC.UNTOUCHED.DD5.1.ESub-BWT.part2.rar
https://www.heroupload.com/8e1621e54854a57c/Sakala.Kala.Vallabhudu.2019.Telugu.WEB-DL.1080p.AVC.UNTOUCHED.DD5.1.ESub-BWT.part3.rar
https://www.heroupload.com/d8e198b914cdbe94/Sakala.Kala.Vallabhudu.2019.Telugu.WEB-DL.1080p.AVC.UNTOUCHED.DD5.1.ESub-BWT.part4.rar
https://www.heroupload.com/a72761145d29d280/Sakala.Kala.Vallabhudu.2019.Telugu.WEB-DL.1080p.AVC.UNTOUCHED.DD5.1.ESub-BWT.part5.rar




Buy Premium From My Links & Support Me

Теги: Sakala

Dear visitor, you are browsing our website as Guest.
We strongly recommend you to register and login to view hidden contents.

Comments:

Add Comments