Set as default Homepage|Bookmark
 
 
» » Sharmaji Ki Lag Gai (2019) 700MB - 1CDRip - PreDVDRip - x264 - MP3-AF Exclusive
Advertise

Sharmaji Ki Lag Gai (2019) 700MB - 1CDRip - PreDVDRip - x264 - MP3-AF Exclusive

Author: wroser on 13-04-2019, 15:39
Sharmaji Ki Lag Gai (2019) 700MB - 1CDRip - PreDVDRip - x264 - MP3-AF Exclusive





Format                                   : Matroska
Format version                           : Version 4
File size                                : 725 MiB
Duration                                 : 1 h 57 min
Overall bit rate                         : 863 kb/s
Encoded date                             : UTC 2019-04-13 13:36:42
Writing application                      : mkvmerge v29.0.0 ('Like It Or Not') 32-bit
Writing library                          : libebml v1.3.6 + libmatroska v1.4.9

Video
ID                                       : 1
Format                                   : AVC
Format/Info                              : Advanced Video Codec
Format profile                           : High@L3.1
Format settings                          : CABAC / 4 Ref Frames
Format settings, CABAC                   : Yes
Format settings, RefFrames               : 4 frames
Codec ID                                 : V_MPEG4/ISO/AVC
Duration                                 : 1 h 57 min
Bit rate                                 : 760 kb/s
Width                                    : 720 pixels
Height                                   : 304 pixels
Display aspect ratio                     : 2.35:1
Frame rate mode                          : Constant
Frame rate                               : 25.000 FPS
Color space                              : YUV
Chroma subsampling                       : 4:2:0
Bit depth                                : 8 bits
Scan type                                : Progressive
Bits/(Pixel*Frame)                       : 0.139
Stream size                              : 643 MiB (89%)
Writing library                          : x264 core 155 r2901 7d0ff22
Encoding settings                        : cabac=1 / ref=1 / deblock=1:0:0 / analyse=0x3:0x113 / me=hex / subme=2 / psy=1 / psy_rd=1.00:0.00 / mixed_ref=0 / me_range=16 / chroma_me=1 / trellis=0 / 8x8dct=1 / cqm=0 / deadzone=21,11 / fast_pskip=1 / chroma_qp_offset=0 / threads=9 / lookahead_threads=2 / sliced_threads=0 / nr=0 / decimate=1 / interlaced=0 / bluray_compat=0 / constrained_intra=0 / bframes=3 / b_pyramid=2 / b_adapt=1 / b_bias=0 / direct=1 / weightb=1 / open_gop=0 / weightp=1 / keyint=250 / keyint_min=25 / scenecut=40 / intra_refresh=0 / rc_lookahead=10 / rc=abr / mbtree=1 / bitrate=760 / ratetol=1.0 / qcomp=0.60 / qpmin=0 / qpmax=69 / qpstep=4 / vbv_maxrate=17500 / vbv_bufsize=17500 / nal_hrd=none / filler=0 / ip_ratio=1.40 / aq=1:1.00
Language                                 : Hindi
Default                                  : Yes
Forced                                   : No
Color range                              : Limited
Color primaries                          : BT.601 PAL
Transfer characteristics                 : BT.709
Matrix coefficients                      : BT.601

Audio
ID                                       : 2
Format                                   : MPEG Audio
Format version                           : Version 1
Format profile                           : Layer 3
Format settings                          : Joint stereo / MS Stereo
Codec ID                                 : A_MPEG/L3
Codec ID/Hint                            : MP3
Duration                                 : 1 h 57 min
Bit rate mode                            : Constant
Bit rate                                 : 96.0 kb/s
Channel(s)                               : 2 channels
Sampling rate                            : 48.0 kHz
Frame rate                               : 41.667 FPS (1152 SPF)
Compression mode                         : Lossy
Delay relative to video                  : -23 ms
Stream size                              : 80.6 MiB (11%)
Language                                 : Hindi
Default                                  : Yes
Forced                                   : No




Sharmaji Ki Lag Gai (2019) 700MB - 1CDRip - PreDVDRip - x264 - MP3-AF ExclusiveSharmaji Ki Lag Gai (2019) 700MB - 1CDRip - PreDVDRip - x264 - MP3-AF ExclusiveSharmaji Ki Lag Gai (2019) 700MB - 1CDRip - PreDVDRip - x264 - MP3-AF ExclusiveSharmaji Ki Lag Gai (2019) 700MB - 1CDRip - PreDVDRip - x264 - MP3-AF ExclusiveSharmaji Ki Lag Gai (2019) 700MB - 1CDRip - PreDVDRip - x264 - MP3-AF Exclusive

SINGLE DIRECT FAST LINKS


https://www.heroupload.com/cd12f6af82861662/Sharmaji.Ki.Lag.Gai.2019.Hindi.PreDVDRip.700MB.x264.MP3-Exclusive.mkv




Buy Premium From My Links & Support Me

Теги: Sharmaji

Dear visitor, you are browsing our website as Guest.
We strongly recommend you to register and login to view hidden contents.

Comments:

Add Comments