Set as default Homepage|Bookmark
 
 
» » 90ML (2019) Tamil - 1080p - WEB-DL - AVC - DD5.1 - UNTOUCHED - ESubs-BWT
Advertise

90ML (2019) Tamil - 1080p - WEB-DL - AVC - DD5.1 - UNTOUCHED - ESubs-BWT

Author: wroser on 5-04-2019, 12:19
90ML (2019) Tamil - 1080p - WEB-DL - AVC - DD5.1 - UNTOUCHED - ESubs-BWT





Format                                   : MPEG-4
Codec ID                                 : M4V  (M4V /M4A /mp42/isom)
File size                                : 7.28 GiB
Duration                                 : 2 h 4 min
Overall bit rate mode                    : Constant
Overall bit rate                         : 8 366 kb/s
Encoded date                             : UTC 2019-04-01 09:44:19
Tagged date                              : UTC 2019-04-01 09:46:03
Rating                                   : None

Video
ID                                       : 1
Format                                   : AVC
Format/Info                              : Advanced Video Codec
Format profile                           : High@L4.2
Format settings                          : CABAC / 4 Ref Frames
Format settings, CABAC                   : Yes
Format settings, RefFrames               : 4 frames
Codec ID                                 : avc1
Codec ID/Info                            : Advanced Video Coding
Duration                                 : 2 h 4 min
Source duration                          : 2 h 4 min
Bit rate mode                            : Constant
Bit rate                                 : 7 578 kb/s
Nominal bit rate                         : 8 000 kb/s
Width                                    : 1 920 pixels
Height                                   : 1 080 pixels
Display aspect ratio                     : 16:9
Frame rate mode                          : Constant
Frame rate                               : 25.000 FPS
Standard                                 : PAL
Color space                              : YUV
Chroma subsampling                       : 4:2:0
Bit depth                                : 8 bits
Scan type                                : Progressive
Bits/(Pixel*Frame)                       : 0.146
Stream size                              : 6.59 GiB (91%)
Source stream size                       : 6.89 GiB (95%)
Language                                 : English
Encoded date                             : UTC 2019-04-01 09:44:19
Tagged date                              : UTC 2019-04-01 09:46:03
Color range                              : Limited
Color primaries                          : BT.709
Transfer characteristics                 : BT.709
Matrix coefficients                      : BT.709
Codec configuration box                  : avcC

Audio
ID                                       : 2
Format                                   : AC-3
Format/Info                              : Audio Coding 3
Commercial name                          : Dolby Digital
Codec ID                                 : ac-3
Duration                                 : 2 h 4 min
Bit rate mode                            : Constant
Bit rate                                 : 448 kb/s
Channel(s)                               : 6 channels
Channel layout                           : L R C LFE Ls Rs
Sampling rate                            : 48.0 kHz
Frame rate                               : 31.250 FPS (1536 SPF)
Bit depth                                : 16 bits
Compression mode                         : Lossy
Stream size                              : 399 MiB (5%)
Service kind                             : Complete Main
Default                                  : Yes
Alternate group                          : 1
Encoded date                             : UTC 2019-04-01 09:44:19
Tagged date                              : UTC 2019-04-01 09:44:24



90ML (2019) Tamil - 1080p - WEB-DL - AVC - DD5.1 - UNTOUCHED - ESubs-BWT90ML (2019) Tamil - 1080p - WEB-DL - AVC - DD5.1 - UNTOUCHED - ESubs-BWT90ML (2019) Tamil - 1080p - WEB-DL - AVC - DD5.1 - UNTOUCHED - ESubs-BWT90ML (2019) Tamil - 1080p - WEB-DL - AVC - DD5.1 - UNTOUCHED - ESubs-BWT

SINGLE DIRECT FAST LINKS

https://www.heroupload.com/4d2f12fa956778c7/90ML.2019.Tamil.WEB-DL.1080p.AVC.UNTOUCHED.DD5.1.ESub-BWT.m4v


1GB LINKS

https://www.heroupload.com/e556859560808045/90ML.2019.Tamil.WEB-DL.1080p.AVC.UNTOUCHED.DD5.1.ESub-BWT.part1.rar
https://www.heroupload.com/2f0bb82d165e0653/90ML.2019.Tamil.WEB-DL.1080p.AVC.UNTOUCHED.DD5.1.ESub-BWT.part2.rar
https://www.heroupload.com/eaf762a4d347e76d/90ML.2019.Tamil.WEB-DL.1080p.AVC.UNTOUCHED.DD5.1.ESub-BWT.part3.rar
https://www.heroupload.com/c2cfbf44a673354c/90ML.2019.Tamil.WEB-DL.1080p.AVC.UNTOUCHED.DD5.1.ESub-BWT.part4.rar
https://www.heroupload.com/82428e3acc077dbd/90ML.2019.Tamil.WEB-DL.1080p.AVC.UNTOUCHED.DD5.1.ESub-BWT.part5.rar
https://www.heroupload.com/a0b79740f7f0668b/90ML.2019.Tamil.WEB-DL.1080p.AVC.UNTOUCHED.DD5.1.ESub-BWT.part6.rar
https://www.heroupload.com/be1d9df8edec23bb/90ML.2019.Tamil.WEB-DL.1080p.AVC.UNTOUCHED.DD5.1.ESub-BWT.part7.rar
https://www.heroupload.com/cdb21c4ee0dd7c2a/90ML.2019.Tamil.WEB-DL.1080p.AVC.UNTOUCHED.DD5.1.ESub-BWT.part8.rar



Buy Premium From My Links & Support Me

Теги: 90ML

Dear visitor, you are browsing our website as Guest.
We strongly recommend you to register and login to view hidden contents.

Comments:

Add Comments
Reply
  • Elberte

  • 6 April 2019 12:37
  • Group: Guests
  • ICQ:
  • Registration: --
  • Status:
  • 0 Comment
  • 0 Article
^
Protecting the pdf is not that hard fi you know more about https://altoprotectpdf.com/. This is why I'm here to help most of the people here and tell them small things as well.