Set as default Homepage|Bookmark
 
 
» » Needi Naadi Oke Katha (2018) Telugu - WEB-DL - 1080p - UNTOUCHED - AVC - AAC - ESu...
Advertise

Needi Naadi Oke Katha (2018) Telugu - WEB-DL - 1080p - UNTOUCHED - AVC - AAC - ESu...

Author: wroser on 22-03-2019, 23:14
Needi Naadi Oke Katha (2018) Telugu - WEB-DL - 1080p - UNTOUCHED - AVC - AAC - ESu...





Format                                   : MPEG-4
Format profile                           : Base Media
Codec ID                                 : isom (isom/iso2/avc1/mp41)
File size                                : 4.44 GiB
Duration                                 : 2 h 1 min
Overall bit rate mode                    : Constant
Overall bit rate                         : 5 252 kb/s
Writing application                      : Lavf57.56.100

Video
ID                                       : 1
Format                                   : AVC
Format/Info                              : Advanced Video Codec
Format profile                           : [email protected]
Format settings                          : 1 Ref Frames
Format settings, CABAC                   : No
Format settings, RefFrames               : 1 frame
Codec ID                                 : avc1
Codec ID/Info                            : Advanced Video Coding
Duration                                 : 2 h 1 min
Bit rate mode                            : Constant
Bit rate                                 : 5 120 kb/s
Width                                    : 1 920 pixels
Height                                   : 1 080 pixels
Display aspect ratio                     : 16:9
Frame rate mode                          : Constant
Frame rate                               : 25.000 FPS
Color space                              : YUV
Chroma subsampling                       : 4:2:0
Bit depth                                : 8 bits
Scan type                                : Progressive
Bits/(Pixel*Frame)                       : 0.099
Stream size                              : 4.33 GiB (97%)
Codec configuration box                  : avcC

Audio
ID                                       : 2
Format                                   : AAC LC
Format/Info                              : Advanced Audio Codec Low Complexity
Codec ID                                 : mp4a-40-2
Duration                                 : 2 h 1 min
Bit rate mode                            : Constant
Bit rate                                 : 126 kb/s
Channel(s)                               : 2 channels
Channel layout                           : L R
Sampling rate                            : 44.1 kHz
Frame rate                               : 43.066 FPS (1024 SPF)
Compression mode                         : Lossy
Stream size                              : 109 MiB (2%)
Language                                 : English
Default                                  : Yes
Alternate group                          : 1



Needi Naadi Oke Katha (2018) Telugu - WEB-DL - 1080p - UNTOUCHED - AVC - AAC - ESu...




SINGLE DIRECT FAST LINKS

https://www.heroupload.com/03332ef47465dbb9/Needi.Naadi.Oke.Katha.2018.Telugu.WEB-DL.1080p.UNTOUCHED.AVC.AAC.ESub-TMV.mp4


1GB LINKS


https://www.heroupload.com/b5c5625387594a00/Needi.Naadi.Oke.Katha.2018.Telugu.WEB-DL.1080p.UNTOUCHED.AVC.AAC.ESub-TMV.part1.rar
https://www.heroupload.com/0dc9c8193c2a455b/Needi.Naadi.Oke.Katha.2018.Telugu.WEB-DL.1080p.UNTOUCHED.AVC.AAC.ESub-TMV.part2.rar
https://www.heroupload.com/132bb8579647f893/Needi.Naadi.Oke.Katha.2018.Telugu.WEB-DL.1080p.UNTOUCHED.AVC.AAC.ESub-TMV.part3.rar
https://www.heroupload.com/699d9c14db804122/Needi.Naadi.Oke.Katha.2018.Telugu.WEB-DL.1080p.UNTOUCHED.AVC.AAC.ESub-TMV.part4.rar
https://www.heroupload.com/0709d0f176fbc88c/Needi.Naadi.Oke.Katha.2018.Telugu.WEB-DL.1080p.UNTOUCHED.AVC.AAC.ESub-TMV.part5.rar


Buy Premium From My Links & Support Me

Теги: Needi

Dear visitor, you are browsing our website as Guest.
We strongly recommend you to register and login to view hidden contents.

Comments:

Add Comments