Set as default Homepage|Bookmark
 
 
» » Bombairiya (2019) 720p - HDRip - x264 - DD5.1 - ESub-DUS Exclusive
Advertise

Bombairiya (2019) 720p - HDRip - x264 - DD5.1 - ESub-DUS Exclusive

Author: wroser on 20-03-2019, 00:07
Bombairiya (2019) 720p - HDRip - x264 - DD5.1 - ESub-DUS Exclusive




Format                                   : Matroska
Format version                           : Version 4
File size                                : 1.35 GiB
Duration                                 : 1 h 48 min
Overall bit rate                         : 1 785 kb/s
Encoded date                             : UTC 2019-03-19 11:36:13
Writing application                      : mkvmerge v29.0.0 ('Like It Or Not') 32-bit
Writing library                          : libebml v1.3.6 + libmatroska v1.4.9

Video
ID                                       : 1
Format                                   : AVC
Format/Info                              : Advanced Video Codec
Format profile                           : High@L4.1
Format settings                          : CABAC / 4 Ref Frames
Format settings, CABAC                   : Yes
Format settings, RefFrames               : 4 frames
Codec ID                                 : V_MPEG4/ISO/AVC
Duration                                 : 1 h 48 min
Bit rate                                 : 1 584 kb/s
Width                                    : 1 280 pixels
Height                                   : 544 pixels
Display aspect ratio                     : 2.35:1
Frame rate mode                          : Constant
Frame rate                               : 24.000 FPS
Color space                              : YUV
Chroma subsampling                       : 4:2:0
Bit depth                                : 8 bits
Scan type                                : Progressive
Bits/(Pixel*Frame)                       : 0.095
Stream size                              : 1.18 GiB (87%)
Writing library                          : x264 core 155 r2901 7d0ff22
Encoding settings                        : cabac=1 / ref=1 / deblock=1:0:0 / analyse=0x3:0x113 / me=hex / subme=2 / psy=1 / psy_rd=1.00:0.00 / mixed_ref=0 / me_range=16 / chroma_me=1 / trellis=0 / 8x8dct=1 / cqm=0 / deadzone=21,11 / fast_pskip=1 / chroma_qp_offset=0 / threads=17 / lookahead_threads=4 / sliced_threads=0 / nr=0 / decimate=1 / interlaced=0 / bluray_compat=0 / constrained_intra=0 / bframes=3 / b_pyramid=2 / b_adapt=1 / b_bias=0 / direct=1 / weightb=1 / open_gop=0 / weightp=1 / keyint=240 / keyint_min=24 / scenecut=40 / intra_refresh=0 / rc_lookahead=10 / rc=abr / mbtree=1 / bitrate=1584 / ratetol=1.0 / qcomp=0.60 / qpmin=0 / qpmax=69 / qpstep=4 / vbv_maxrate=62500 / vbv_bufsize=78125 / nal_hrd=none / filler=0 / ip_ratio=1.40 / aq=1:1.00
Default                                  : Yes
Forced                                   : No
Color range                              : Limited
Color primaries                          : BT.709
Transfer characteristics                 : BT.709
Matrix coefficients                      : BT.709

Audio
ID                                       : 2
Format                                   : AAC LC
Format/Info                              : Advanced Audio Codec Low Complexity
Codec ID                                 : A_AAC-2
Duration                                 : 1 h 48 min
Bit rate                                 : 224 kb/s
Channel(s)                               : 6 channels
Channel layout                           : C L R Ls Rs LFE
Sampling rate                            : 48.0 kHz
Frame rate                               : 46.875 FPS (1024 SPF)
Compression mode                         : Lossy
Delay relative to video                  : -21 ms
Stream size                              : 173 MiB (13%)
Default                                  : Yes
Forced                                   : No

Text
ID                                       : 3
Format                                   : UTF-8
Codec ID                                 : S_TEXT/UTF8
Codec ID/Info                            : UTF-8 Plain Text
Duration                                 : 1 h 47 min
Bit rate                                 : 76 b/s
Count of elements                        : 1356
Stream size                              : 60.6 KiB (0%)
Language                                 : English
Default                                  : Yes
Forced                                   : Yes



Bombairiya (2019) 720p - HDRip - x264 - DD5.1 - ESub-DUS ExclusiveBombairiya (2019) 720p - HDRip - x264 - DD5.1 - ESub-DUS ExclusiveBombairiya (2019) 720p - HDRip - x264 - DD5.1 - ESub-DUS ExclusiveBombairiya (2019) 720p - HDRip - x264 - DD5.1 - ESub-DUS ExclusiveBombairiya (2019) 720p - HDRip - x264 - DD5.1 - ESub-DUS Exclusive



SINGLE DIRECT FAST LINKS


https://www.heroupload.com/fc7cdf5968e68572/Bombairiya.2019.Hindi.HDRip.720p.x264.DD5.1.ESub-Exclusive.mkv



Buy Premium From My Links & Support Me

Теги: Bombairiya

Dear visitor, you are browsing our website as Guest.
We strongly recommend you to register and login to view hidden contents.

Comments:

Add Comments