Set as default Homepage|Bookmark
 
 
» » Dev (2019) Tamil - WEB-DL - 1080p - UNTOUCHED - AVC -DD5.1 - ESub-TMV
Advertise

Dev (2019) Tamil - WEB-DL - 1080p - UNTOUCHED - AVC -DD5.1 - ESub-TMV

Author: wroser on 19-03-2019, 23:45
Dev (2019) Tamil - WEB-DL - 1080p - UNTOUCHED - AVC -DD5.1 - ESub-TMV




Format                                   : MPEG-4
Format profile                           : Base Media / Version 2
Codec ID                                 : mp42 (mp42/mp41)
File size                                : 6.95 GiB
Duration                                 : 2 h 32 min
Overall bit rate                         : 6 512 kb/s
Encoded date                             : UTC 2019-03-11 15:04:21
Tagged date                              : UTC 2019-03-11 15:09:05
TIM                                      : 00:00:00:00
TSC                                      : 24
TSZ                                      : 1

Video
ID                                       : 1
Format                                   : AVC
Format/Info                              : Advanced Video Codec
Format profile                           : Main@L4.1
Format settings                          : CABAC / 4 Ref Frames
Format settings, CABAC                   : Yes
Format settings, RefFrames               : 4 frames
Codec ID                                 : avc1
Codec ID/Info                            : Advanced Video Coding
Duration                                 : 2 h 32 min
Bit rate                                 : 5 998 kb/s
Width                                    : 1 920 pixels
Height                                   : 1 080 pixels
Display aspect ratio                     : 16:9
Frame rate mode                          : Constant
Frame rate                               : 24.000 FPS
Color space                              : YUV
Chroma subsampling                       : 4:2:0
Bit depth                                : 8 bits
Scan type                                : Progressive
Bits/(Pixel*Frame)                       : 0.121
Stream size                              : 6.40 GiB (92%)
Language                                 : English
Encoded date                             : UTC 2019-03-11 15:04:21
Tagged date                              : UTC 2019-03-11 15:04:21
Color range                              : Limited
Color primaries                          : BT.709
Transfer characteristics                 : BT.709
Matrix coefficients                      : BT.709
Codec configuration box                  : avcC

Audio
ID                                       : 2
Format                                   : AC-3
Format/Info                              : Audio Coding 3
Commercial name                          : Dolby Digital
Codec ID                                 : ac-3
Duration                                 : 2 h 32 min
Source duration                          : 2 h 32 min
Bit rate mode                            : Constant
Bit rate                                 : 512 kb/s
Channel(s)                               : 6 channels
Channel layout                           : L R C LFE Ls Rs
Sampling rate                            : 48.0 kHz
Frame rate                               : 31.250 FPS (1536 SPF)
Bit depth                                : 16 bits
Compression mode                         : Lossy
Stream size                              : 560 MiB (8%)
Source stream size                       : 560 MiB (8%)
Language                                 : English
Service kind                             : Complete Main
Encoded date                             : UTC 2019-03-11 15:04:21
Tagged date                              : UTC 2019-03-11 15:04:21


Dev (2019) Tamil - WEB-DL - 1080p - UNTOUCHED - AVC -DD5.1 - ESub-TMVDev (2019) Tamil - WEB-DL - 1080p - UNTOUCHED - AVC -DD5.1 - ESub-TMVDev (2019) Tamil - WEB-DL - 1080p - UNTOUCHED - AVC -DD5.1 - ESub-TMVDev (2019) Tamil - WEB-DL - 1080p - UNTOUCHED - AVC -DD5.1 - ESub-TMV


SINGLE DIRECT FAST LINKS

https://www.heroupload.com/9219df090f96cd96/Dev.2019.Tamil.WEB-DL.1080p.AVC.UNTOUCHED.DD5.1.ESub-TMV.mp4


1GB LINKS



https://www.heroupload.com/56e23d350d26966f/Dev.2019.Tamil.WEB-DL.1080p.AVC.UNTOUCHED.DD5.1.ESub-TMV.part1.rar
https://www.heroupload.com/21331d715a150ca0/Dev.2019.Tamil.WEB-DL.1080p.AVC.UNTOUCHED.DD5.1.ESub-TMV.part2.rar
https://www.heroupload.com/c505ed5cfb3de80d/Dev.2019.Tamil.WEB-DL.1080p.AVC.UNTOUCHED.DD5.1.ESub-TMV.part3.rar
https://www.heroupload.com/be2e463075ffb290/Dev.2019.Tamil.WEB-DL.1080p.AVC.UNTOUCHED.DD5.1.ESub-TMV.part4.rar
https://www.heroupload.com/97030e5d4cb8e547/Dev.2019.Tamil.WEB-DL.1080p.AVC.UNTOUCHED.DD5.1.ESub-TMV.part5.rar
https://www.heroupload.com/b13e2a3ad0d4efef/Dev.2019.Tamil.WEB-DL.1080p.AVC.UNTOUCHED.DD5.1.ESub-TMV.part6.rar
https://www.heroupload.com/cc3b3cd44df870aa/Dev.2019.Tamil.WEB-DL.1080p.AVC.UNTOUCHED.DD5.1.ESub-TMV.part7.rar




Buy Premium From My Links & Support Me

Теги: Dev

Dear visitor, you are browsing our website as Guest.
We strongly recommend you to register and login to view hidden contents.

Comments:

Add Comments
Reply
  • asd

  • 20 March 2019 10:36
  • Group: Guests
  • ICQ:
  • Registration: --
  • Status:
  • 0 Comment
  • 0 Article
^
Thank you very much for this useful article. I like it.catalonia
Reply
  • Group: Guests
  • ICQ:
  • Registration: --
  • Status:
  • 0 Comment
  • 0 Article
^
Its a great pleasure reading your post.Its full of information I am looking for and I love to post a comment that "The content of your post is awesome" Great work. corporate wear
Reply
  • Bartley

  • 15 April 2019 11:52
  • Group: Guests
  • ICQ:
  • Registration: --
  • Status:
  • 0 Comment
  • 0 Article
^
My paid adobe conversion tool is nothing as compared to de.altoconvertpdftoexcel.com. Their files are true to the format and have a lot better quality than the paid software.