Set as default Homepage|Bookmark
 
 
» » Rahasyam (2019) Telugu - WEB-DL - 1080p - UNTOUCHED - AVC -DD5.1 - ESub-TMV
Advertise

Rahasyam (2019) Telugu - WEB-DL - 1080p - UNTOUCHED - AVC -DD5.1 - ESub-TMV

Author: wroser on 19-03-2019, 23:29
Rahasyam (2019) Telugu - WEB-DL - 1080p - UNTOUCHED - AVC -DD5.1 - ESub-TMV






Format                                   : Matroska
Format version                           : Version 4
File size                                : 3.85 GiB
Duration                                 : 1 h 40 min
Overall bit rate                         : 5 504 kb/s
Encoded date                             : UTC 2019-03-13 05:41:33
Writing application                      : mkvmerge v25.0.0 ('Prog Noir') 32-bit
Writing library                          : libebml v1.3.6 + libmatroska v1.4.9

Video
ID                                       : 1
Format                                   : AVC
Format/Info                              : Advanced Video Codec
Format profile                           : [email protected]
Format settings                          : CABAC / 4 Ref Frames
Format settings, CABAC                   : Yes
Format settings, RefFrames               : 4 frames
Codec ID                                 : V_MPEG4/ISO/AVC
Duration                                 : 1 h 40 min
Bit rate                                 : 5 278 kb/s
Width                                    : 1 920 pixels
Height                                   : 816 pixels
Display aspect ratio                     : 2.35:1
Frame rate mode                          : Constant
Frame rate                               : 24.000 FPS
Color space                              : YUV
Chroma subsampling                       : 4:2:0
Bit depth                                : 8 bits
Scan type                                : Progressive
Bits/(Pixel*Frame)                       : 0.140
Stream size                              : 3.69 GiB (96%)
Default                                  : Yes
Forced                                   : No
Color range                              : Limited
Color primaries                          : BT.709
Transfer characteristics                 : BT.709
Matrix coefficients                      : BT.709

Audio
ID                                       : 2
Format                                   : E-AC-3
Format/Info                              : Enhanced AC-3
Commercial name                          : Dolby Digital Plus
Codec ID                                 : A_EAC3
Duration                                 : 1 h 40 min
Bit rate mode                            : Constant
Bit rate                                 : 224 kb/s
Channel(s)                               : 2 channels
Channel layout                           : L R
Sampling rate                            : 48.0 kHz
Frame rate                               : 31.250 FPS (1536 SPF)
Compression mode                         : Lossy
Stream size                              : 160 MiB (4%)
Title                                    : Telugu
Language                                 : Telugu
Service kind                             : Complete Main
Default                                  : No
Forced                                   : No

Text
ID                                       : 3
Format                                   : UTF-8
Codec ID                                 : S_TEXT/UTF8
Codec ID/Info                            : UTF-8 Plain Text
Duration                                 : 1 h 37 min
Bit rate                                 : 56 b/s
Count of elements                        : 1258
Stream size                              : 40.6 KiB (0%)
Title                                    : English [SDH]
Language                                 : English
Default                                  : No
Forced                                   : No



Rahasyam (2019) Telugu - WEB-DL - 1080p - UNTOUCHED - AVC -DD5.1 - ESub-TMVRahasyam (2019) Telugu - WEB-DL - 1080p - UNTOUCHED - AVC -DD5.1 - ESub-TMVRahasyam (2019) Telugu - WEB-DL - 1080p - UNTOUCHED - AVC -DD5.1 - ESub-TMVRahasyam (2019) Telugu - WEB-DL - 1080p - UNTOUCHED - AVC -DD5.1 - ESub-TMVRahasyam (2019) Telugu - WEB-DL - 1080p - UNTOUCHED - AVC -DD5.1 - ESub-TMV


SINGLE DIRECT FAST LINKS

https://www.heroupload.com/029eef5d7a76a6aa/Rahasyam.2019.Telugu.WEB-DL.1080p.UNTOUCHED.AVC.DD5.1.ESub-TMV.mkv


1GB LINKS



https://www.heroupload.com/e4f7d53c735cf2cc/Rahasyam.2019.Telugu.WEB-DL.1080p.UNTOUCHED.AVC.DD5.1.ESub-TMV.part1.rar
https://www.heroupload.com/4e509fb903b51d84/Rahasyam.2019.Telugu.WEB-DL.1080p.UNTOUCHED.AVC.DD5.1.ESub-TMV.part2.rar
https://www.heroupload.com/ea218961f3dc6da8/Rahasyam.2019.Telugu.WEB-DL.1080p.UNTOUCHED.AVC.DD5.1.ESub-TMV.part3.rar
https://www.heroupload.com/377a2a383f84f552/Rahasyam.2019.Telugu.WEB-DL.1080p.UNTOUCHED.AVC.DD5.1.ESub-TMV.part4.rar



Buy Premium From My Links & Support Me

Теги: Rahasyam

Dear visitor, you are browsing our website as Guest.
We strongly recommend you to register and login to view hidden contents.

Comments:

Add Comments