Set as default Homepage|Bookmark
 
 
» » LAW (2018) Telugu - WEB-DL - 1080p - UNTOUCHED - AVC -DD5.1 - ESub-TMV
Advertise

LAW (2018) Telugu - WEB-DL - 1080p - UNTOUCHED - AVC -DD5.1 - ESub-TMV

Author: wroser on 19-03-2019, 23:12
LAW (2018) Telugu - WEB-DL - 1080p - UNTOUCHED - AVC -DD5.1 - ESub-TMV








ormat                                   : Matroska
Format version                           : Version 4
File size                                : 6.25 GiB
Duration                                 : 2 h 9 min
Overall bit rate                         : 6 935 kb/s
Encoded date                             : UTC 2019-03-12 18:45:29
Writing application                      : mkvmerge v25.0.0 ('Prog Noir') 32-bit
Writing library                          : libebml v1.3.6 + libmatroska v1.4.9

Video
ID                                       : 1
Format                                   : AVC
Format/Info                              : Advanced Video Codec
Format profile                           : [email protected]
Format settings                          : CABAC / 4 Ref Frames
Format settings, CABAC                   : Yes
Format settings, RefFrames               : 4 frames
Codec ID                                 : V_MPEG4/ISO/AVC
Duration                                 : 2 h 9 min
Bit rate                                 : 6 709 kb/s
Width                                    : 1 920 pixels
Height                                   : 1 080 pixels
Display aspect ratio                     : 16:9
Frame rate mode                          : Constant
Frame rate                               : 24.000 FPS
Color space                              : YUV
Chroma subsampling                       : 4:2:0
Bit depth                                : 8 bits
Scan type                                : Progressive
Bits/(Pixel*Frame)                       : 0.135
Stream size                              : 6.05 GiB (97%)
Default                                  : Yes
Forced                                   : No
Color range                              : Limited
Color primaries                          : BT.709
Transfer characteristics                 : BT.709
Matrix coefficients                      : BT.709

Audio
ID                                       : 2
Format                                   : E-AC-3
Format/Info                              : Enhanced AC-3
Commercial name                          : Dolby Digital Plus
Codec ID                                 : A_EAC3
Duration                                 : 2 h 9 min
Bit rate mode                            : Constant
Bit rate                                 : 224 kb/s
Channel(s)                               : 2 channels
Channel layout                           : L R
Sampling rate                            : 48.0 kHz
Frame rate                               : 31.250 FPS (1536 SPF)
Compression mode                         : Lossy
Stream size                              : 207 MiB (3%)
Title                                    : Telugu
Language                                 : Telugu
Service kind                             : Complete Main
Default                                  : No
Forced                                   : No

Text
ID                                       : 3
Format                                   : UTF-8
Codec ID                                 : S_TEXT/UTF8
Codec ID/Info                            : UTF-8 Plain Text
Duration                                 : 2 h 2 min
Bit rate                                 : 52 b/s
Count of elements                        : 1210
Stream size                              : 47.1 KiB (0%)
Title                                    : English [SDH]
Language                                 : English
Default                                  : No
Forced                                   : No




LAW (2018) Telugu - WEB-DL - 1080p - UNTOUCHED - AVC -DD5.1 - ESub-TMVLAW (2018) Telugu - WEB-DL - 1080p - UNTOUCHED - AVC -DD5.1 - ESub-TMVLAW (2018) Telugu - WEB-DL - 1080p - UNTOUCHED - AVC -DD5.1 - ESub-TMVLAW (2018) Telugu - WEB-DL - 1080p - UNTOUCHED - AVC -DD5.1 - ESub-TMVLAW (2018) Telugu - WEB-DL - 1080p - UNTOUCHED - AVC -DD5.1 - ESub-TMVLAW (2018) Telugu - WEB-DL - 1080p - UNTOUCHED - AVC -DD5.1 - ESub-TMVLAW (2018) Telugu - WEB-DL - 1080p - UNTOUCHED - AVC -DD5.1 - ESub-TMVLAW (2018) Telugu - WEB-DL - 1080p - UNTOUCHED - AVC -DD5.1 - ESub-TMV

SINGLE DIRECT FAST LINKS

https://www.heroupload.com/e6a9f7225c79e287/LAW.2018.Telugu.WEB-DL.1080p.UNTOUCHED.AVC.DD5.1.ESub-TMV.mkv


1GB LINKS



https://www.heroupload.com/d521d27b51d7dad4/LAW.2018.Telugu.WEB-DL.1080p.UNTOUCHED.AVC.DD5.1.ESub-TMV.part1.rar
https://www.heroupload.com/ee0c4582c3ee16e0/LAW.2018.Telugu.WEB-DL.1080p.UNTOUCHED.AVC.DD5.1.ESub-TMV.part2.rar
https://www.heroupload.com/8232c5243cd8de87/LAW.2018.Telugu.WEB-DL.1080p.UNTOUCHED.AVC.DD5.1.ESub-TMV.part3.rar
https://www.heroupload.com/7a0189dfdea44e03/LAW.2018.Telugu.WEB-DL.1080p.UNTOUCHED.AVC.DD5.1.ESub-TMV.part4.rar
https://www.heroupload.com/587b2666e9fc7517/LAW.2018.Telugu.WEB-DL.1080p.UNTOUCHED.AVC.DD5.1.ESub-TMV.part5.rar
https://www.heroupload.com/1d1f2f8e6ffff519/LAW.2018.Telugu.WEB-DL.1080p.UNTOUCHED.AVC.DD5.1.ESub-TMV.part6.rar
https://www.heroupload.com/a64f44683d3d9b7a/LAW.2018.Telugu.WEB-DL.1080p.UNTOUCHED.AVC.DD5.1.ESub-TMV.part7.rar




Buy Premium From My Links & Support Me

Теги: LAW

Dear visitor, you are browsing our website as Guest.
We strongly recommend you to register and login to view hidden contents.

Comments:

Add Comments
Reply
  • Group: Guests
  • ICQ:
  • Registration: --
  • Status:
  • 0 Comment
  • 0 Article
^
Never been a fan of the show because it kind of seems unrealistic to someone like me. I think they can find more if they turn toward an approach which is more real.