Set as default Homepage|Bookmark
 
 
» » Chi La Sow (2018) Telugu - 1080p - HDTV-Rip - x264 - DD5.1-TMV
Advertise

Chi La Sow (2018) Telugu - 1080p - HDTV-Rip - x264 - DD5.1-TMV

Author: wroser on 19-03-2019, 22:46
Chi La Sow (2018) Telugu - 1080p - HDTV-Rip - x264 - DD5.1-TMV





Format                                   : MPEG-4
Format profile                           : Base Media
Codec ID                                 : isom (isom/iso2/avc1/mp41)
File size                                : 3.13 GiB
Duration                                 : 2 h 2 min
Overall bit rate mode                    : Variable
Overall bit rate                         : 3 663 kb/s
Writing application                      : Lavf57.71.100

Video
ID                                       : 1
Format                                   : AVC
Format/Info                              : Advanced Video Codec
Format profile                           : [email protected]
Format settings                          : CABAC / 4 Ref Frames
Format settings, CABAC                   : Yes
Format settings, RefFrames               : 4 frames
Codec ID                                 : avc1
Codec ID/Info                            : Advanced Video Coding
Duration                                 : 2 h 2 min
Bit rate                                 : 3 600 kb/s
Width                                    : 1 920 pixels
Height                                   : 1 080 pixels
Display aspect ratio                     : 16:9
Frame rate mode                          : Variable
Frame rate                               : 25.000 FPS
Minimum frame rate                       : 8.333 FPS
Maximum frame rate                       : 25.000 FPS
Color space                              : YUV
Chroma subsampling                       : 4:2:0
Bit depth                                : 8 bits
Scan type                                : Progressive
Bits/(Pixel*Frame)                       : 0.069
Stream size                              : 3.07 GiB (98%)
Writing library                          : x264 core 155 r2901 7d0ff22
Encoding settings                        : cabac=1 / ref=1 / deblock=1:0:0 / analyse=0x3:0x113 / me=hex / subme=2 / psy=1 / psy_rd=1.00:0.00 / mixed_ref=0 / me_range=16 / chroma_me=1 / trellis=0 / 8x8dct=1 / cqm=0 / deadzone=21,11 / fast_pskip=1 / chroma_qp_offset=0 / threads=34 / lookahead_threads=8 / sliced_threads=0 / nr=0 / decimate=1 / interlaced=0 / bluray_compat=0 / constrained_intra=0 / bframes=3 / b_pyramid=2 / b_adapt=1 / b_bias=0 / direct=1 / weightb=1 / open_gop=0 / weightp=1 / keyint=250 / keyint_min=25 / scenecut=40 / intra_refresh=0 / rc_lookahead=10 / rc=abr / mbtree=1 / bitrate=3600 / ratetol=1.0 / qcomp=0.60 / qpmin=0 / qpmax=69 / qpstep=4 / vbv_maxrate=25000 / vbv_bufsize=31250 / nal_hrd=none / filler=0 / ip_ratio=1.40 / aq=1:1.00
Color range                              : Limited
Color primaries                          : BT.709
Transfer characteristics                 : BT.709
Matrix coefficients                      : BT.709
Codec configuration box                  : avcC

Audio
ID                                       : 2
Format                                   : AAC LC
Format/Info                              : Advanced Audio Codec Low Complexity
Codec ID                                 : mp4a-40-2
Duration                                 : 2 h 2 min
Bit rate mode                            : Variable
Bit rate                                 : 62.2 kb/s
Maximum bit rate                         : 128 kb/s
Channel(s)                               : 2 channels
Channel layout                           : L R
Sampling rate                            : 32.0 kHz
Frame rate                               : 31.250 FPS (1024 SPF)
Compression mode                         : Lossy
Stream size                              : 54.4 MiB (2%)
Language                                 : Telugu
Default                                  : Yes
Alternate group                          : 1




Chi La Sow (2018) Telugu - 1080p - HDTV-Rip - x264 - DD5.1-TMVChi La Sow (2018) Telugu - 1080p - HDTV-Rip - x264 - DD5.1-TMVChi La Sow (2018) Telugu - 1080p - HDTV-Rip - x264 - DD5.1-TMVChi La Sow (2018) Telugu - 1080p - HDTV-Rip - x264 - DD5.1-TMVChi La Sow (2018) Telugu - 1080p - HDTV-Rip - x264 - DD5.1-TMVChi La Sow (2018) Telugu - 1080p - HDTV-Rip - x264 - DD5.1-TMV

SINGLE DIRECT FAST LINKS

https://www.heroupload.com/7b31aae9f9ddb9cc/Chi.La.Sow.2018.Telugu.HDTV.1080p.UNTOUCHED-TMV.mp4


1GB LINKS



https://www.heroupload.com/6f071391a81578a4/Chi.La.Sow.2018.Telugu.HDTV.1080p.UNTOUCHED-TMV.part1.rar
https://www.heroupload.com/9291a0e15720768e/Chi.La.Sow.2018.Telugu.HDTV.1080p.UNTOUCHED-TMV.part2.rar
https://www.heroupload.com/80c8a6cd7b4fbd46/Chi.La.Sow.2018.Telugu.HDTV.1080p.UNTOUCHED-TMV.part3.rar
https://www.heroupload.com/57facd0aa8f37ad7/Chi.La.Sow.2018.Telugu.HDTV.1080p.UNTOUCHED-TMV.part4.rar


Buy Premium From My Links & Support Me

Теги: Chi

Dear visitor, you are browsing our website as Guest.
We strongly recommend you to register and login to view hidden contents.

Comments:

Add Comments