Set as default Homepage|Bookmark
 
 
» » Mr. Majnu (2019) Telugu - 720p - WEB-DL - UNTOUCHED - AVC - AAC-TMV
Advertise

Mr. Majnu (2019) Telugu - 720p - WEB-DL - UNTOUCHED - AVC - AAC-TMV

Author: wroser on 10-03-2019, 23:38
Mr. Majnu (2019) Telugu - 720p - WEB-DL - UNTOUCHED - AVC - AAC-TMV




Format                                   : MPEG-4
Format profile                           : Base Media
Codec ID                                 : isom (isom/iso2/avc1/mp41)
File size                                : 1.83 GiB
Duration                                 : 2 h 18 min
Overall bit rate                         : 1 897 kb/s
Writing application                      : Lavf58.24.100

Video
ID                                       : 1
Format                                   : AVC
Format/Info                              : Advanced Video Codec
Format profile                           : High@L3.1
Format settings                          : CABAC / 4 Ref Frames
Format settings, CABAC                   : Yes
Format settings, RefFrames               : 4 frames
Codec ID                                 : avc1
Codec ID/Info                            : Advanced Video Coding
Duration                                 : 2 h 18 min
Bit rate                                 : 1 800 kb/s
Width                                    : 1 280 pixels
Height                                   : 720 pixels
Display aspect ratio                     : 16:9
Frame rate mode                          : Constant
Frame rate                               : 25.000 FPS
Color space                              : YUV
Chroma subsampling                       : 4:2:0
Bit depth                                : 8 bits
Scan type                                : Progressive
Bits/(Pixel*Frame)                       : 0.078
Stream size                              : 1.73 GiB (95%)
Writing library                          : x264 core 152 r2854 e9a5903
Encoding settings                        : cabac=1 / ref=3 / deblock=1:0:0 / analyse=0x3:0x113 / me=hex / subme=7 / psy=1 / psy_rd=1.00:0.00 / mixed_ref=1 / me_range=16 / chroma_me=1 / trellis=1 / 8x8dct=1 / cqm=0 / deadzone=21,11 / fast_pskip=1 / chroma_qp_offset=-2 / threads=22 / lookahead_threads=3 / sliced_threads=0 / nr=0 / decimate=1 / interlaced=0 / bluray_compat=0 / constrained_intra=0 / bframes=3 / b_pyramid=2 / b_adapt=1 / b_bias=0 / direct=1 / weightb=1 / open_gop=0 / weightp=2 / keyint=50 / keyint_min=26 / scenecut=0 / intra_refresh=0 / rc_lookahead=40 / rc=abr / mbtree=1 / bitrate=1800 / ratetol=1.0 / qcomp=0.60 / qpmin=0 / qpmax=69 / qpstep=4 / vbv_maxrate=2340 / vbv_bufsize=2700 / nal_hrd=none / filler=0 / ip_ratio=1.40 / aq=1:1.00
Codec configuration box                  : avcC

Audio
ID                                       : 2
Format                                   : AAC LC
Format/Info                              : Advanced Audio Codec Low Complexity
Codec ID                                 : mp4a-40-2
Duration                                 : 2 h 18 min
Bit rate mode                            : Constant
Bit rate                                 : 96.0 kb/s
Channel(s)                               : 2 channels
Channel layout                           : L R
Sampling rate                            : 48.0 kHz
Frame rate                               : 46.875 FPS (1024 SPF)
Compression mode                         : Lossy
Stream size                              : 96.8 MiB (5%)
Default                                  : Yes
Alternate group                          : 1



Mr. Majnu (2019) Telugu - 720p - WEB-DL - UNTOUCHED - AVC - AAC-TMVMr. Majnu (2019) Telugu - 720p - WEB-DL - UNTOUCHED - AVC - AAC-TMVMr. Majnu (2019) Telugu - 720p - WEB-DL - UNTOUCHED - AVC - AAC-TMVMr. Majnu (2019) Telugu - 720p - WEB-DL - UNTOUCHED - AVC - AAC-TMVMr. Majnu (2019) Telugu - 720p - WEB-DL - UNTOUCHED - AVC - AAC-TMVMr. Majnu (2019) Telugu - 720p - WEB-DL - UNTOUCHED - AVC - AAC-TMVMr. Majnu (2019) Telugu - 720p - WEB-DL - UNTOUCHED - AVC - AAC-TMVMr. Majnu (2019) Telugu - 720p - WEB-DL - UNTOUCHED - AVC - AAC-TMVMr. Majnu (2019) Telugu - 720p - WEB-DL - UNTOUCHED - AVC - AAC-TMV




SINGLE DIRECT FAST LINKS

https://www.heroupload.com/1bdaa56bd39796c9/Mr.Majnu.2019._WEB-DL.720p.UNTOUCHED.AVC.AAC-TMV.mp4



Buy Premium From My Links & Support Me

Теги: Mr

Dear visitor, you are browsing our website as Guest.
We strongly recommend you to register and login to view hidden contents.

Comments:

Add Comments