Set as default Homepage|Bookmark
 
 
» » The Girl in the Spider's Web (2018) 1080p BluRay x264 DD5.1 [Dual Audio][Hindi+Englis
Advertise

The Girl in the Spider's Web (2018) 1080p BluRay x264 DD5.1 [Dual Audio][Hindi+Englis

Author: wroser on 3-03-2019, 22:42
The Girl in the Spider's Web (2018) 1080p BluRay x264 DD5.1 [Dual Audio][Hindi+Englis






The Girl in the Spider's Web (2018) 1080p BluRay x264 Dual Audio [Hindi Org BD DD5.1 - English DD5.1] - ESUBS ~ Ranvijay [Team SSX]

Thanks To Hammer For Hindi Audio



Format : Matroska
Format version : Version 4 / Version 2
File size : 4.90 GiB
Duration : 1 h 55 min
Overall bit rate : 6 078 kb/s
Movie name : The Girl in the Spider's Web (2018) 1080p BluRay x264 Dual Audio [Hindi Org BD DD5.1 - English DD5.1] - ESUBS ~ Ranvijay

Video
ID : 1
Format : AVC
Format/Info : Advanced Video Codec
Duration : 1 h 55 min
Bit rate : 5 000 kb/s
Width : 1 920 pixels
Height : 800 pixels
Display aspect ratio : 2.40:1
Frame rate mode : Constant
Frame rate : 23.976 (24000/1001) FPS
Color space : YUV
Chroma subsampling : 4:2:0
Bit depth : 8 bits
Scan type : Progressive
Bits/(Pixel*Frame) : 0.136
Stream size : 4.03 GiB (82%)
Title : ~Ranvijay~

Audio #1
ID : 2
Format : AC-3
Format/Info : Audio Coding 3
Codec ID : A_AC3
Duration : 1 h 55 min
Bit rate mode : Constant
Bit rate : 640 kb/s
Channel(s) : 6 channels
Channel positions : Front: L C R, Side: L R, LFE
Sampling rate : 48.0 kHz
Frame rate : 31.250 FPS (1536 SPF)
Bit depth : 16 bits
Compression mode : Lossy
Stream size : 528 MiB (11%)
Title : ~Ranvijay~
Language : Hindi
Service kind : Complete Main
Default : Yes
Forced : Yes

Audio #2
ID : 3
Format : AC-3
Format/Info : Audio Coding 3
Codec ID : A_AC3
Duration : 1 h 55 min
Bit rate mode : Constant
Bit rate : 384 kb/s
Channel(s) : 6 channels
Channel positions : Front: L C R, Side: L R, LFE
Sampling rate : 48.0 kHz
Frame rate : 31.250 FPS (1536 SPF)
Bit depth : 16 bits
Compression mode : Lossy
Stream size : 317 MiB (6%)
Title : ~Ranvijay~
Language : English
Service kind : Complete Main
Default : No
Forced : No

Text #1
ID : 4
Format : PGS
Muxing mode : zlib
Codec ID : S_HDMV/PGS
Codec ID/Info : Picture based subtitle format used on BDs/HD-DVDs
Duration : 1 h 49 min
Bit rate : 17.6 kb/s
Count of elements : 1674
Stream size : 13.8 MiB (0%)
Title : ~Ranvijay~
Language : English
Default : Yes
Forced : Yes

Text #2
ID : 5
Format : PGS
Muxing mode : zlib
Codec ID : S_HDMV/PGS
Codec ID/Info : Picture based subtitle format used on BDs/HD-DVDs
Duration : 1 h 46 min
Bit rate : 14.7 kb/s
Count of elements : 1262
Stream size : 11.2 MiB (0%)
Title : ~Ranvijay~
Language : English
Default : No
Forced : No

Text #3
ID : 6
Format : PGS
Muxing mode : zlib
Codec ID : S_HDMV/PGS
Codec ID/Info : Picture based subtitle format used on BDs/HD-DVDs
Duration : 1 h 50 min
Bit rate : 82.1 kb/s
Count of elements : 4506
Stream size : 65.0 MiB (1%)
Title : ~Ranvijay~
Language : English
Default : No
Forced : No

Menu
00:00:00.000 : en:00:00:00.000
00:10:23.915 : en:00:10:23.915
00:16:32.867 : en:00:16:32.867
00:21:05.431 : en:00:21:05.431
00:27:34.444 : en:00:27:34.444
00:34:20.058 : en:00:34:20.058
00:41:41.040 : en:00:41:41.040
00:48:24.318 : en:00:48:24.318
00:58:39.182 : en:00:58:39.182
01:05:56.828 : en:01:05:56.828
01:10:31.978 : en:01:10:31.978
01:20:03.924 : en:01:20:03.924
01:27:18.900 : en:01:27:18.900
01:35:05.533 : en:01:35:05.533
01:38:04.128 : en:01:38:04.128
01:43:16.565 : en:01:43:16.565



The Girl in the Spider's Web (2018) 1080p BluRay x264 DD5.1 [Dual Audio][Hindi+Englis
The Girl in the Spider's Web (2018) 1080p BluRay x264 DD5.1 [Dual Audio][Hindi+Englis
The Girl in the Spider's Web (2018) 1080p BluRay x264 DD5.1 [Dual Audio][Hindi+Englis
The Girl in the Spider's Web (2018) 1080p BluRay x264 DD5.1 [Dual Audio][Hindi+Englis
The Girl in the Spider's Web (2018) 1080p BluRay x264 DD5.1 [Dual Audio][Hindi+Englis
The Girl in the Spider's Web (2018) 1080p BluRay x264 DD5.1 [Dual Audio][Hindi+Englis
The Girl in the Spider's Web (2018) 1080p BluRay x264 DD5.1 [Dual Audio][Hindi+Englis
The Girl in the Spider's Web (2018) 1080p BluRay x264 DD5.1 [Dual Audio][Hindi+Englis
The Girl in the Spider's Web (2018) 1080p BluRay x264 DD5.1 [Dual Audio][Hindi+Englis
The Girl in the Spider's Web (2018) 1080p BluRay x264 DD5.1 [Dual Audio][Hindi+Englis
The Girl in the Spider's Web (2018) 1080p BluRay x264 DD5.1 [Dual Audio][Hindi+Englis
The Girl in the Spider's Web (2018) 1080p BluRay x264 DD5.1 [Dual Audio][Hindi+Englis



SINGLE DIRECT FAST LINKS

https://www.heroupload.com/bd412cc47049b7bd/The.Girl.in.the.Spiders.Web.2018.1080p.BluRay.x264.Dual.Audio.Hindi.Org.DD5.1+English.DD5.1.MSUBS-Ranvijay.mkv


1GB LINKS



https://www.heroupload.com/4a300463d4620333/The.Girl.in.the.Spiders.Web.2018.1080p.BluRay.x264.Dual.Audio.Hindi.Org.DD5.1+English.DD5.1.MSUBS-Ranvijay.part1.rar
https://www.heroupload.com/6e63454fef8a3ae7/The.Girl.in.the.Spiders.Web.2018.1080p.BluRay.x264.Dual.Audio.Hindi.Org.DD5.1+English.DD5.1.MSUBS-Ranvijay.part2.rar
https://www.heroupload.com/241fd930bcfb30fe/The.Girl.in.the.Spiders.Web.2018.1080p.BluRay.x264.Dual.Audio.Hindi.Org.DD5.1+English.DD5.1.MSUBS-Ranvijay.part3.rar
https://www.heroupload.com/fcec5dbd54a1eaa0/The.Girl.in.the.Spiders.Web.2018.1080p.BluRay.x264.Dual.Audio.Hindi.Org.DD5.1+English.DD5.1.MSUBS-Ranvijay.part4.rar
https://www.heroupload.com/4d81f08a8ef85abf/The.Girl.in.the.Spiders.Web.2018.1080p.BluRay.x264.Dual.Audio.Hindi.Org.DD5.1+English.DD5.1.MSUBS-Ranvijay.part5.rar


Buy Premium From My Links & Support Me

Теги: The

Dear visitor, you are browsing our website as Guest.
We strongly recommend you to register and login to view hidden contents.

Comments:

Add Comments
Reply
  • Group: Guests
  • ICQ:
  • Registration: --
  • Status:
  • 0 Comment
  • 0 Article
^
Awesome review, I am a major devotee to remarking on web journals to educate the web journal scholars realize that they've added something beneficial to the internet!.. Everything You Should know about Breast Cancer