Set as default Homepage|Bookmark
 
 
» » The Girl in the Spider's Web (2018) 720p BluRay x264 DD5.1 [Dual Audio][Hindi+English
Advertise

The Girl in the Spider's Web (2018) 720p BluRay x264 DD5.1 [Dual Audio][Hindi+English

Author: wroser on 3-03-2019, 22:39
The Girl in the Spider's Web (2018) 720p BluRay x264 DD5.1 [Dual Audio][Hindi+English




The Girl in the Spider's Web (2018) 720p BluRay x264 Dual Audio [Hindi Org BD DD5.1 - English DD5.1] - ESUBS ~ Ranvijay [Team SSX]

Thanks To Hammer For Hindi Audio



Format                                   : Matroska
Format version                           : Version 4 / Version 2
File size                                : 1.68 GiB
Duration                                 : 1 h 55 min
Overall bit rate                         : 2 084 kb/s
Movie name                               : The Girl in the Spider's Web (2018) 720p BluRay x264 Dual Audio [Hindi Org BD DD5.1 - English DD5.1] - ESUBS ~ Ranvijay

Video
ID                                       : 1
Format                                   : AVC
Format/Info                              : Advanced Video Codec
Format profile                           : High@L4.1
Duration                                 : 1 h 55 min
Bit rate                                 : 1 200 kb/s
Width                                    : 1 280 pixels
Height                                   : 536 pixels
Display aspect ratio                     : 2.40:1
Frame rate mode                          : Constant
Frame rate                               : 23.976 (24000/1001) FPS
Color space                              : YUV
Chroma subsampling                       : 4:2:0
Bit depth                                : 8 bits
Scan type                                : Progressive
Bits/(Pixel*Frame)                       : 0.073
Stream size                              : 990 MiB (58%)
Title                                    : ~Ranvijay~

Audio #1
ID                                       : 2
Format                                   : AC-3
Format/Info                              : Audio Coding 3
Codec ID                                 : A_AC3
Duration                                 : 1 h 55 min
Bit rate mode                            : Constant
Bit rate                                 : 640 kb/s
Channel(s)                               : 6 channels
Channel positions                        : Front: L C R, Side: L R, LFE
Sampling rate                            : 48.0 kHz
Frame rate                               : 31.250 FPS (1536 SPF)
Bit depth                                : 16 bits
Compression mode                         : Lossy
Stream size                              : 528 MiB (31%)
Title                                    : ~Ranvijay~
Language                                 : Hindi
Service kind                             : Complete Main
Default                                  : Yes
Forced                                   : Yes

Audio #2
ID                                       : 3
Format                                   : AAC
Format/Info                              : Advanced Audio Codec
Format profile                           : LC
Codec ID                                 : A_AAC-2
Duration                                 : 1 h 55 min
Bit rate                                 : 192 kb/s
Channel(s)                               : 6 channels
Channel positions                        : Front: L C R, Side: L R, LFE
Sampling rate                            : 48.0 kHz
Frame rate                               : 46.875 FPS (1024 SPF)
Compression mode                         : Lossy
Delay relative to video                  : 9 ms
Stream size                              : 156 MiB (9%)
Title                                    : ~Ranvijay~
Language                                 : English
Default                                  : No
Forced                                   : No

Text #1
ID                                       : 4
Format                                   : PGS
Muxing mode                              : zlib
Codec ID                                 : S_HDMV/PGS
Codec ID/Info                            : Picture based subtitle format used on BDs/HD-DVDs
Duration                                 : 1 h 50 min
Bit rate                                 : 77.8 kb/s
Count of elements                        : 4380
Stream size                              : 61.6 MiB (4%)
Title                                    : ~Ranvijay~
Language                                 : English
Default                                  : Yes
Forced                                   : Yes

Text #2
ID                                       : 5
Format                                   : PGS
Muxing mode                              : zlib
Codec ID                                 : S_HDMV/PGS
Codec ID/Info                            : Picture based subtitle format used on BDs/HD-DVDs
Duration                                 : 1 h 46 min
Bit rate                                 : 14.7 kb/s
Count of elements                        : 1270
Stream size                              : 11.2 MiB (1%)
Title                                    : ~Ranvijay~
Language                                 : English
Default                                  : No
Forced                                   : No

Text #3
ID                                       : 6
Format                                   : PGS
Muxing mode                              : zlib
Codec ID                                 : S_HDMV/PGS
Codec ID/Info                            : Picture based subtitle format used on BDs/HD-DVDs
Duration                                 : 1 h 49 min
Bit rate                                 : 17.7 kb/s
Count of elements                        : 1686
Stream size                              : 13.8 MiB (1%)
Title                                    : ~Ranvijay~
Language                                 : English
Default                                  : No
Forced                                   : No 



The Girl in the Spider's Web (2018) 720p BluRay x264 DD5.1 [Dual Audio][Hindi+English
The Girl in the Spider's Web (2018) 720p BluRay x264 DD5.1 [Dual Audio][Hindi+English
The Girl in the Spider's Web (2018) 720p BluRay x264 DD5.1 [Dual Audio][Hindi+English
The Girl in the Spider's Web (2018) 720p BluRay x264 DD5.1 [Dual Audio][Hindi+English
The Girl in the Spider's Web (2018) 720p BluRay x264 DD5.1 [Dual Audio][Hindi+English
The Girl in the Spider's Web (2018) 720p BluRay x264 DD5.1 [Dual Audio][Hindi+English
The Girl in the Spider's Web (2018) 720p BluRay x264 DD5.1 [Dual Audio][Hindi+English
The Girl in the Spider's Web (2018) 720p BluRay x264 DD5.1 [Dual Audio][Hindi+English
The Girl in the Spider's Web (2018) 720p BluRay x264 DD5.1 [Dual Audio][Hindi+English
The Girl in the Spider's Web (2018) 720p BluRay x264 DD5.1 [Dual Audio][Hindi+English
The Girl in the Spider's Web (2018) 720p BluRay x264 DD5.1 [Dual Audio][Hindi+English
The Girl in the Spider's Web (2018) 720p BluRay x264 DD5.1 [Dual Audio][Hindi+English
The Girl in the Spider's Web (2018) 720p BluRay x264 DD5.1 [Dual Audio][Hindi+English
The Girl in the Spider's Web (2018) 720p BluRay x264 DD5.1 [Dual Audio][Hindi+English
The Girl in the Spider's Web (2018) 720p BluRay x264 DD5.1 [Dual Audio][Hindi+English
The Girl in the Spider's Web (2018) 720p BluRay x264 DD5.1 [Dual Audio][Hindi+English

SINGLE DIRECT FAST LINKS

https://www.heroupload.com/67f1c1363efd2556/The.Girl.in.the.Spiders.Web.2018.720p.BluRay.x264.Dual.Audio.Hindi.Org.DD5.1+English.DD5.1.MSUBS-Ranvijay.mkv



Buy Premium From My Links & Support Me

Теги: The

Dear visitor, you are browsing our website as Guest.
We strongly recommend you to register and login to view hidden contents.

Comments:

Add Comments