Set as default Homepage|Bookmark
 
 
» » American Gangster (2007) 720p BluRay x264 DD5.1 [Dual Audio][Hindi+English] Team SSX
Advertise

American Gangster (2007) 720p BluRay x264 DD5.1 [Dual Audio][Hindi+English] Team SSX

Author: wroser on 3-03-2019, 22:22
American Gangster (2007) 720p BluRay x264 DD5.1 [Dual Audio][Hindi+English] Team SSX






General

Format                                   : Matroska
Format version                           : Version 4
File size                                : 1.95 GiB
Duration                                 : 2 h 36 min
Overall bit rate                         : 1 782 kb/s


Video
ID                                       : 1
Format                                   : AVC
Format/Info                              : Advanced Video Codec
Format profile                           : High@L4.1
Format settings                          : CABAC / 9 Ref Frames
Format settings, CABAC                   : Yes
Format settings, RefFrames               : 9 frames
Codec ID                                 : V_MPEG4/ISO/AVC
Duration                                 : 2 h 36 min
Bit rate                                 : 1 000 kb/s
Width                                    : 1 280 pixels
Height                                   : 720 pixels
Display aspect ratio                     : 16:9
Frame rate mode                          : Constant
Frame rate                               : 23.976 (24000/1001) FPS
Color space                              : YUV
Chroma subsampling                       : 4:2:0
Bit depth                                : 8 bits
Scan type                                : Progressive
Bits/(Pixel*Frame)                       : 0.045
Stream size                              : 1.09 GiB (56%)
Title                                    : Team SSX
Default                                  : Yes
Forced                                   : No
Color range                              : Limited
Color primaries                          : Generic film
Transfer characteristics                 : BT.709
Matrix coefficients                      : BT.709

Audio #1
ID                                       : 2
Format                                   : AC-3
Format/Info                              : Audio Coding 3
Commercial name                          : Dolby Digital
Codec ID                                 : A_AC3
Duration                                 : 2 h 36 min
Bit rate mode                            : Constant
Bit rate                                 : 128 kb/s
Channel(s)                               : 6 channels
Channel layout                           : L R C LFE Ls Rs
Sampling rate                            : 48.0 kHz
Frame rate                               : 31.250 FPS (1536 SPF)
Bit depth                                : 16 bits
Compression mode                         : Lossy
Stream size                              : 144 MiB (7%)
Title                                    : Team SSX
Language                                 : English
Service kind                             : Complete Main
Default                                  : No
Forced                                   : No

Audio #2
ID                                       : 4
Format                                   : E-AC-3
Format/Info                              : Enhanced AC-3
Commercial name                          : Dolby Digital Plus
Codec ID                                 : A_EAC3
Duration                                 : 2 h 36 min
Bit rate mode                            : Constant
Bit rate                                 : 640 kb/s
Channel(s)                               : 6 channels
Channel layout                           : L R C LFE Ls Rs
Sampling rate                            : 48.0 kHz
Frame rate                               : 31.250 FPS (1536 SPF)
Compression mode                         : Lossy
Stream size                              : 718 MiB (36%)
Title                                    : Team SSX
Language                                 : Hindi
Service kind                             : Complete Main
Default                                  : Yes
Forced                                   : Yes

Text
ID                                       : 3
Format                                   : PGS
Muxing mode                              : zlib
Codec ID                                 : S_HDMV/PGS
Codec ID/Info                            : Picture based subtitle format used on BDs/HD-DVDs
Duration                                 : 2 h 28 min
Bit rate                                 : 47.8 kb/s
Count of elements                        : 4433
Stream size                              : 50.8 MiB (3%)
Title                                    : Team SSX
Language                                 : English
Default                                  : Yes
Forced                                   : No 






American Gangster (2007) 720p BluRay x264 DD5.1 [Dual Audio][Hindi+English] Team SSX
American Gangster (2007) 720p BluRay x264 DD5.1 [Dual Audio][Hindi+English] Team SSX
American Gangster (2007) 720p BluRay x264 DD5.1 [Dual Audio][Hindi+English] Team SSX
American Gangster (2007) 720p BluRay x264 DD5.1 [Dual Audio][Hindi+English] Team SSX
American Gangster (2007) 720p BluRay x264 DD5.1 [Dual Audio][Hindi+English] Team SSX
American Gangster (2007) 720p BluRay x264 DD5.1 [Dual Audio][Hindi+English] Team SSX
SINGLE DIRECT FAST LINKS


https://www.heroupload.com/232990cf1255d1d1/American.Gangster.2007.720p.BluRay.x264.Eng+Hindi.DD5.1-Team.SSX.mkv


Buy Premium From My Links & Support Me

Теги: American

Dear visitor, you are browsing our website as Guest.
We strongly recommend you to register and login to view hidden contents.

Comments:

Add Comments