Set as default Homepage|Bookmark
 
 
» » Couples Retreat (2009) 720p BluRay x264 DD5.1 [Dual Audio][Hindi+English] - Team SSX
Advertise

Couples Retreat (2009) 720p BluRay x264 DD5.1 [Dual Audio][Hindi+English] - Team SSX

Author: wroser on 3-03-2019, 22:15
Couples Retreat (2009) 720p BluRay x264 DD5.1 [Dual Audio][Hindi+English] - Team SSX






General

Format : Matroska
Format version : Version 4
File size : 1.24 GiB
Duration : 1 h 53 min
Overall bit rate : 1 562 kb/s


Video
ID : 1
Format : AVC
Format/Info : Advanced Video Codec
Format profile : High@L4
Format settings : CABAC / 9 Ref Frames
Format settings, CABAC : Yes
Format settings, RefFrames : 9 frames
Codec ID : V_MPEG4/ISO/AVC
Duration : 1 h 53 min
Bit rate : 826 kb/s
Width : 1 280 pixels
Height : 688 pixels
Display aspect ratio : 1.85:1
Frame rate mode : Constant
Frame rate : 23.976 (24000/1001) FPS
Color space : YUV
Chroma subsampling : 4:2:0
Bit depth : 8 bits
Scan type : Progressive
Bits/(Pixel*Frame) : 0.039
Stream size : 671 MiB (53%)
Title : Team SSX
Writing library : x264 core 125 r2200 999b753
Default : Yes
Forced : No

Audio #1
ID : 2
Format : AAC LC
Format/Info : Advanced Audio Codec Low Complexity
Codec ID : A_AAC-2
Duration : 1 h 53 min
Bit rate : 93.9 kb/s
Channel(s) : 2 channels
Channel layout : L R
Sampling rate : 44.1 kHz
Frame rate : 43.066 FPS (1024 SPF)
Compression mode : Lossy
Delay relative to video : -125 ms
Stream size : 76.3 MiB (6%)
Title : Team SSX
Language : English
Default : No
Forced : No

Audio #2
ID : 3
Format : E-AC-3
Format/Info : Enhanced AC-3
Commercial name : Dolby Digital Plus
Codec ID : A_EAC3
Duration : 1 h 53 min
Bit rate mode : Constant
Bit rate : 640 kb/s
Channel(s) : 6 channels
Channel layout : L R C LFE Ls Rs
Sampling rate : 48.0 kHz
Frame rate : 31.250 FPS (1536 SPF)
Compression mode : Lossy
Delay relative to video : -75 ms
Stream size : 520 MiB (41%)
Title : Team SSX
Language : Hindi
Service kind : Complete Main
Default : Yes
Forced : Yes





Couples Retreat (2009) 720p BluRay x264 DD5.1 [Dual Audio][Hindi+English] - Team SSX
Couples Retreat (2009) 720p BluRay x264 DD5.1 [Dual Audio][Hindi+English] - Team SSX
Couples Retreat (2009) 720p BluRay x264 DD5.1 [Dual Audio][Hindi+English] - Team SSX
Couples Retreat (2009) 720p BluRay x264 DD5.1 [Dual Audio][Hindi+English] - Team SSX
Couples Retreat (2009) 720p BluRay x264 DD5.1 [Dual Audio][Hindi+English] - Team SSX
Couples Retreat (2009) 720p BluRay x264 DD5.1 [Dual Audio][Hindi+English] - Team SSX


SINGLE DIRECT FAST LINKS


https://www.heroupload.com/536fbea451b123b4/Couples.Retreat.2009.720p.BluRay.x264.Eng+Hindi.DD5.1-Team.SSX.mkv



Buy Premium From My Links & Support Me

Теги: Couples

Dear visitor, you are browsing our website as Guest.
We strongly recommend you to register and login to view hidden contents.

Comments:

Add Comments