Set as default Homepage|Bookmark
 
 
» » A Quiet Place (2018) 720p BluRay x264 DD5.1 [Dual Audio][Hindi+English] - Team SSX
Advertise

A Quiet Place (2018) 720p BluRay x264 DD5.1 [Dual Audio][Hindi+English] - Team SSX

Author: wroser on 3-03-2019, 22:09
A Quiet Place (2018) 720p BluRay x264 DD5.1 [Dual Audio][Hindi+English] - Team SSX





General

Format                                   : Matroska
Format version                           : Version 4
File size                                : 1.15 GiB
Duration                                 : 1 h 30 min
Overall bit rate                         : 1 831 kb/s


Video
ID                                       : 1
Format                                   : AVC
Format/Info                              : Advanced Video Codec
Format profile                           : High@L4.1
Format settings                          : CABAC / 4 Ref Frames
Format settings, CABAC                   : Yes
Format settings, RefFrames               : 4 frames
Codec ID                                 : V_MPEG4/ISO/AVC
Duration                                 : 1 h 30 min
Bit rate                                 : 1 050 kb/s
Width                                    : 1 280 pixels
Height                                   : 534 pixels
Display aspect ratio                     : 2.40:1
Original display aspect ratio            : 2.40:1
Frame rate mode                          : Constant
Frame rate                               : 23.976 (24000/1001) FPS
Color space                              : YUV
Chroma subsampling                       : 4:2:0
Bit depth                                : 8 bits
Scan type                                : Progressive
Bits/(Pixel*Frame)                       : 0.064
Stream size                              : 678 MiB (57%)
Title                                    : Team SSX
Writing library                          : x264 core 155
Default                                  : Yes
Forced                                   : No

Audio #1
ID                                       : 2
Format                                   : AAC LC
Format/Info                              : Advanced Audio Codec Low Complexity
Codec ID                                 : A_AAC-2
Duration                                 : 1 h 30 min
Bit rate                                 : 139 kb/s
Channel(s)                               : 2 channels
Channel layout                           : L R
Sampling rate                            : 48.0 kHz
Frame rate                               : 46.875 FPS (1024 SPF)
Compression mode                         : Lossy
Delay relative to video                  : -43 ms
Stream size                              : 89.8 MiB (8%)
Title                                    : Team SSX
Language                                 : English
Default                                  : No
Forced                                   : No

Audio #2
ID                                       : 3
Format                                   : E-AC-3
Format/Info                              : Enhanced AC-3
Commercial name                          : Dolby Digital Plus
Codec ID                                 : A_EAC3
Duration                                 : 1 h 30 min
Bit rate mode                            : Constant
Bit rate                                 : 640 kb/s
Channel(s)                               : 6 channels
Channel layout                           : L R C LFE Ls Rs
Sampling rate                            : 48.0 kHz
Frame rate                               : 31.250 FPS (1536 SPF)
Compression mode                         : Lossy
Delay relative to video                  : 957 ms
Stream size                              : 413 MiB (35%)
Title                                    : Team SSX
Language                                 : Hindi
Service kind                             : Complete Main
Default                                  : Yes
Forced                                   : Yes



A Quiet Place (2018) 720p BluRay x264 DD5.1 [Dual Audio][Hindi+English] - Team SSX
A Quiet Place (2018) 720p BluRay x264 DD5.1 [Dual Audio][Hindi+English] - Team SSX
A Quiet Place (2018) 720p BluRay x264 DD5.1 [Dual Audio][Hindi+English] - Team SSX
A Quiet Place (2018) 720p BluRay x264 DD5.1 [Dual Audio][Hindi+English] - Team SSX
A Quiet Place (2018) 720p BluRay x264 DD5.1 [Dual Audio][Hindi+English] - Team SSX



SINGLE DIRECT FAST LINKS


https://www.heroupload.com/87b2f8727b835e90/A.Quiet.Place.2018.720p.BluRay.x264.Eng+Hindi.DD5.1-Team.SSX.mkv



Buy Premium From My Links & Support Me

Теги: A

Dear visitor, you are browsing our website as Guest.
We strongly recommend you to register and login to view hidden contents.

Comments:

Add Comments
Reply
  • Group: Guests
  • ICQ:
  • Registration: --
  • Status:
  • 0 Comment
  • 0 Article
^
This is my first time visit to your blog and I am very interested in the articles that you serve. Provide enough knowledge for me. Thank you for sharing useful and don't forget, keep sharing useful info: 7 Ancient Wonders of The World
Reply
  • Group: Guests
  • ICQ:
  • Registration: --
  • Status:
  • 0 Comment
  • 0 Article
^
I am hoping the same best effort from you in the future as well. In fact your creative writing skills has inspired me. sms bomber
Reply
  • Group: Guests
  • ICQ:
  • Registration: --
  • Status:
  • 0 Comment
  • 0 Article
^
So luck to come across your excellent blog. Your blog brings me a great deal of fun.. Good luck with the site. www.myaarpmedicare.com login
Reply
  • Group: Guests
  • ICQ:
  • Registration: --
  • Status:
  • 0 Comment
  • 0 Article
^
I am hoping the same best effort from you in the future as well. In fact your creative writing skills has inspired me. <a href="https://www.naturalhealthscam.com/ascend-garcinia-review/">as
cend garcinia</a>

I am hoping the same best effort from you in the future as well. In fact your creative writing skills has inspired me.ascend garcinia