Set as default Homepage|Bookmark
 
 
» » Uri: The Surgical Strike (2019) 1080p - UNTOUCHED - HD-Screening - AVC - AAC - AF Exc
Advertise

Uri: The Surgical Strike (2019) 1080p - UNTOUCHED - HD-Screening - AVC - AAC - AF Exc

Author: wroser on 27-02-2019, 08:21
Uri: The Surgical Strike (2019) 1080p - UNTOUCHED - HD-Screening - AVC - AAC - AF Exc





Format                                   : Matroska
Format version                           : Version 4
File size                                : 1.96 GiB
Duration                                 : 2 h 18 min
Overall bit rate                         : 2 025 kb/s
Encoded date                             : UTC 2019-02-27 08:07:42
Writing application                      : mkvmerge v29.0.0 ('Like It Or Not') 32-bit
Writing library                          : libebml v1.3.6 + libmatroska v1.4.9

Video
ID                                       : 1
Format                                   : AVC
Format/Info                              : Advanced Video Codec
Format profile                           : Main@L4
Format settings                          : CABAC / 4 Ref Frames
Format settings, CABAC                   : Yes
Format settings, RefFrames               : 4 frames
Format settings, GOP                     : M=4, N=24
Codec ID                                 : V_MPEG4/ISO/AVC
Duration                                 : 2 h 18 min
Bit rate                                 : 1 892 kb/s
Width                                    : 1 920 pixels
Height                                   : 1 080 pixels
Display aspect ratio                     : 16:9
Frame rate mode                          : Constant
Frame rate                               : 24.000 FPS
Color space                              : YUV
Chroma subsampling                       : 4:2:0
Bit depth                                : 8 bits
Scan type                                : Progressive
Bits/(Pixel*Frame)                       : 0.038
Stream size                              : 1.83 GiB (93%)
Default                                  : Yes
Forced                                   : No

Audio
ID                                       : 2
Format                                   : AAC LC
Format/Info                              : Advanced Audio Codec Low Complexity
Codec ID                                 : A_AAC-2
Duration                                 : 2 h 18 min
Bit rate                                 : 132 kb/s
Channel(s)                               : 2 channels
Channel layout                           : L R
Sampling rate                            : 48.0 kHz
Frame rate                               : 46.875 FPS (1024 SPF)
Compression mode                         : Lossy
Delay relative to video                  : 15 ms
Stream size                              : 129 MiB (6%)
Default                                  : Yes
Forced                                   : No



Uri: The Surgical Strike (2019) 1080p - UNTOUCHED - HD-Screening - AVC - AAC - AF ExcUri: The Surgical Strike (2019) 1080p - UNTOUCHED - HD-Screening - AVC - AAC - AF ExcUri: The Surgical Strike (2019) 1080p - UNTOUCHED - HD-Screening - AVC - AAC - AF ExcUri: The Surgical Strike (2019) 1080p - UNTOUCHED - HD-Screening - AVC - AAC - AF ExcUri: The Surgical Strike (2019) 1080p - UNTOUCHED - HD-Screening - AVC - AAC - AF ExcUri: The Surgical Strike (2019) 1080p - UNTOUCHED - HD-Screening - AVC - AAC - AF Exc



SINGLE DIRECT FAST LINKS


https://www.heroupload.com/579acf08f5e3405a/URI-The.Surgical.Strike.2019.Hindi.1080p.HD-Screening.OrgDD5.1-Exclusive.mkv



Buy Premium From My Links & Support Me

Теги: Uri

Dear visitor, you are browsing our website as Guest.
We strongly recommend you to register and login to view hidden contents.

Comments:

Add Comments
Reply
  • Group: Guests
  • ICQ:
  • Registration: --
  • Status:
  • 0 Comment
  • 0 Article
^
Although URI: The surgical strike has earned a lot in the box office, this movie does not touch my heart. Its storyline does not impress me. You can visit this https://topamericanwriters.com/essaylab-org-review/ site to watch more inspirational movies. According to my point of view, Bollywood should make movies on some better ideas and not one such rubbish ideas.