Set as default Homepage|Bookmark
 
 
» » F2: Fun and Frustration (2019) Telugu - 1080p - UNTOUCHED - AVC - DD5.1 - Esubs-TMV
Advertise

F2: Fun and Frustration (2019) Telugu - 1080p - UNTOUCHED - AVC - DD5.1 - Esubs-TMV

Author: wroser on 10-02-2019, 20:59
F2: Fun and Frustration (2019) Telugu - 1080p - UNTOUCHED - AVC - DD5.1 - Esubs-TMV





Format                                   : Matroska
Format version                           : Version 4
File size                                : 8.69 GiB
Duration                                 : 2 h 27 min
Overall bit rate                         : 8 431 kb/s
Encoded date                             : UTC 2019-02-01 21:57:52
Writing application                      : mkvmerge v25.0.0 ('Prog Noir') 32-bit
Writing library                          : libebml v1.3.6 + libmatroska v1.4.9

Video
ID                                       : 1
Format                                   : AVC
Format/Info                              : Advanced Video Codec
Format profile                           : High@L4
Format settings                          : CABAC / 4 Ref Frames
Format settings, CABAC                   : Yes
Format settings, RefFrames               : 4 frames
Codec ID                                 : V_MPEG4/ISO/AVC
Duration                                 : 2 h 27 min
Bit rate                                 : 7 789 kb/s
Width                                    : 1 920 pixels
Height                                   : 816 pixels
Display aspect ratio                     : 2.35:1
Frame rate mode                          : Constant
Frame rate                               : 24.000 FPS
Color space                              : YUV
Chroma subsampling                       : 4:2:0
Bit depth                                : 8 bits
Scan type                                : Progressive
Bits/(Pixel*Frame)                       : 0.207
Stream size                              : 8.03 GiB (92%)
Default                                  : Yes
Forced                                   : No
Color range                              : Limited
Color primaries                          : BT.709
Transfer characteristics                 : BT.709
Matrix coefficients                      : BT.709

Audio
ID                                       : 2
Format                                   : E-AC-3
Format/Info                              : Enhanced AC-3
Commercial name                          : Dolby Digital Plus
Codec ID                                 : A_EAC3
Duration                                 : 2 h 27 min
Bit rate mode                            : Constant
Bit rate                                 : 640 kb/s
Channel(s)                               : 6 channels
Channel layout                           : L R C LFE Ls Rs
Sampling rate                            : 48.0 kHz
Frame rate                               : 31.250 FPS (1536 SPF)
Compression mode                         : Lossy
Stream size                              : 675 MiB (8%)
Title                                    : Telugu
Language                                 : Telugu
Service kind                             : Complete Main
Default                                  : No
Forced                                   : No

Text
ID                                       : 3
Format                                   : UTF-8
Codec ID                                 : S_TEXT/UTF8
Codec ID/Info                            : UTF-8 Plain Text
Duration                                 : 2 h 25 min
Bit rate                                 : 106 b/s
Count of elements                        : 3021
Stream size                              : 114 KiB (0%)
Title                                    : English [SDH]
Language                                 : English
Default                                  : No
Forced                                   : No



F2: Fun and Frustration (2019) Telugu - 1080p - UNTOUCHED - AVC - DD5.1 - Esubs-TMVF2: Fun and Frustration (2019) Telugu - 1080p - UNTOUCHED - AVC - DD5.1 - Esubs-TMVF2: Fun and Frustration (2019) Telugu - 1080p - UNTOUCHED - AVC - DD5.1 - Esubs-TMVF2: Fun and Frustration (2019) Telugu - 1080p - UNTOUCHED - AVC - DD5.1 - Esubs-TMVF2: Fun and Frustration (2019) Telugu - 1080p - UNTOUCHED - AVC - DD5.1 - Esubs-TMVF2: Fun and Frustration (2019) Telugu - 1080p - UNTOUCHED - AVC - DD5.1 - Esubs-TMVF2: Fun and Frustration (2019) Telugu - 1080p - UNTOUCHED - AVC - DD5.1 - Esubs-TMVF2: Fun and Frustration (2019) Telugu - 1080p - UNTOUCHED - AVC - DD5.1 - Esubs-TMV

SINGLE DIRECT FAST LINKS

https://www.heroupload.com/c0718b3491f16247/F2.2019.Telugu.WEB-DL.1080p.UNTOUCHED.AVC.DD5.1.ESub-TMV.mkv


1GB LINKS



https://www.heroupload.com/fb62c31b1d0cec35/F2.2019.Telugu.WEB-DL.1080p.UNTOUCHED.AVC.DD5.1.ESub-TMV.part01.rar
https://www.heroupload.com/1a384be0e4e511db/F2.2019.Telugu.WEB-DL.1080p.UNTOUCHED.AVC.DD5.1.ESub-TMV.part02.rar
https://www.heroupload.com/254dd00a16a1c2ce/F2.2019.Telugu.WEB-DL.1080p.UNTOUCHED.AVC.DD5.1.ESub-TMV.part03.rar
https://www.heroupload.com/7fc7086195d47e06/F2.2019.Telugu.WEB-DL.1080p.UNTOUCHED.AVC.DD5.1.ESub-TMV.part04.rar
https://www.heroupload.com/f475db556a7e4a91/F2.2019.Telugu.WEB-DL.1080p.UNTOUCHED.AVC.DD5.1.ESub-TMV.part05.rar
https://www.heroupload.com/4c46b16b0f6a47df/F2.2019.Telugu.WEB-DL.1080p.UNTOUCHED.AVC.DD5.1.ESub-TMV.part06.rar
https://www.heroupload.com/83501f3e477352c2/F2.2019.Telugu.WEB-DL.1080p.UNTOUCHED.AVC.DD5.1.ESub-TMV.part07.rar
https://www.heroupload.com/816127899e898268/F2.2019.Telugu.WEB-DL.1080p.UNTOUCHED.AVC.DD5.1.ESub-TMV.part08.rar
https://www.heroupload.com/e0322b5bd31c42f8/F2.2019.Telugu.WEB-DL.1080p.UNTOUCHED.AVC.DD5.1.ESub-TMV.part09.rar


Buy Premium From My Links & Support Me

Теги: F2

Dear visitor, you are browsing our website as Guest.
We strongly recommend you to register and login to view hidden contents.

Comments:

Add Comments