Set as default Homepage|Bookmark
 
 
» » N.T.R: Kathanayakudu (2019) Telugu - 1080p - UNTOUCHED - AVC - DD5.1 - Esubs-TMV
Advertise

N.T.R: Kathanayakudu (2019) Telugu - 1080p - UNTOUCHED - AVC - DD5.1 - Esubs-TMV

Author: wroser on 8-02-2019, 00:13
N.T.R: Kathanayakudu (2019) Telugu - 1080p - UNTOUCHED - AVC - DD5.1 - Esubs-TMV




Format                                   : Matroska
Format version                           : Version 4
File size                                : 7.68 GiB
Duration                                 : 2 h 46 min
Overall bit rate                         : 6 590 kb/s
Encoded date                             : UTC 2019-02-07 19:11:57
Writing application                      : mkvmerge v25.0.0 ('Prog Noir') 32-bit
Writing library                          : libebml v1.3.6 + libmatroska v1.4.9

Video
ID                                       : 1
Format                                   : AVC
Format/Info                              : Advanced Video Codec
Format profile                           : High@L4
Format settings                          : CABAC / 4 Ref Frames
Format settings, CABAC                   : Yes
Format settings, RefFrames               : 4 frames
Codec ID                                 : V_MPEG4/ISO/AVC
Duration                                 : 2 h 46 min
Bit rate                                 : 5 948 kb/s
Width                                    : 1 920 pixels
Height                                   : 1 080 pixels
Display aspect ratio                     : 16:9
Frame rate mode                          : Constant
Frame rate                               : 24.000 FPS
Color space                              : YUV
Chroma subsampling                       : 4:2:0
Bit depth                                : 8 bits
Scan type                                : Progressive
Bits/(Pixel*Frame)                       : 0.120
Stream size                              : 6.93 GiB (90%)
Default                                  : Yes
Forced                                   : No
Color range                              : Limited
Color primaries                          : BT.709
Transfer characteristics                 : BT.709
Matrix coefficients                      : BT.709

Audio
ID                                       : 2
Format                                   : E-AC-3
Format/Info                              : Enhanced AC-3
Commercial name                          : Dolby Digital Plus
Codec ID                                 : A_EAC3
Duration                                 : 2 h 46 min
Bit rate mode                            : Constant
Bit rate                                 : 640 kb/s
Channel(s)                               : 6 channels
Channel layout                           : L R C LFE Ls Rs
Sampling rate                            : 48.0 kHz
Frame rate                               : 31.250 FPS (1536 SPF)
Compression mode                         : Lossy
Stream size                              : 763 MiB (10%)
Title                                    : Telugu
Language                                 : Telugu
Service kind                             : Complete Main
Default                                  : No
Forced                                   : No

Text
ID                                       : 3
Format                                   : UTF-8
Codec ID                                 : S_TEXT/UTF8
Codec ID/Info                            : UTF-8 Plain Text
Duration                                 : 2 h 46 min
Bit rate                                 : 78 b/s
Count of elements                        : 2792
Stream size                              : 95.8 KiB (0%)
Title                                    : English [SDH]
Language                                 : English
Default                                  : No
Forced                                   : No



N.T.R: Kathanayakudu (2019) Telugu - 1080p - UNTOUCHED - AVC - DD5.1 - Esubs-TMVN.T.R: Kathanayakudu (2019) Telugu - 1080p - UNTOUCHED - AVC - DD5.1 - Esubs-TMVN.T.R: Kathanayakudu (2019) Telugu - 1080p - UNTOUCHED - AVC - DD5.1 - Esubs-TMVN.T.R: Kathanayakudu (2019) Telugu - 1080p - UNTOUCHED - AVC - DD5.1 - Esubs-TMVN.T.R: Kathanayakudu (2019) Telugu - 1080p - UNTOUCHED - AVC - DD5.1 - Esubs-TMVN.T.R: Kathanayakudu (2019) Telugu - 1080p - UNTOUCHED - AVC - DD5.1 - Esubs-TMVN.T.R: Kathanayakudu (2019) Telugu - 1080p - UNTOUCHED - AVC - DD5.1 - Esubs-TMVN.T.R: Kathanayakudu (2019) Telugu - 1080p - UNTOUCHED - AVC - DD5.1 - Esubs-TMVN.T.R: Kathanayakudu (2019) Telugu - 1080p - UNTOUCHED - AVC - DD5.1 - Esubs-TMVN.T.R: Kathanayakudu (2019) Telugu - 1080p - UNTOUCHED - AVC - DD5.1 - Esubs-TMVN.T.R: Kathanayakudu (2019) Telugu - 1080p - UNTOUCHED - AVC - DD5.1 - Esubs-TMV


SINGLE DIRECT FAST LINKS

https://www.heroupload.com/d9e730509028e58a/N.T.R.Kathanayakudu.2019.Telugu.WEB-DL.1080p.UNTOUCHED.AVC.DD5.1.ESub-TMV.mkv


1GB LINKS


https://www.heroupload.com/1f2c296e9cce6906/N.T.R.Kathanayakudu.2019.Telugu.WEB-DL.1080p.UNTOUCHED.AVC.DD5.1.ESub-TMV.part1.rar
https://www.heroupload.com/ead64c4b71e8150c/N.T.R.Kathanayakudu.2019.Telugu.WEB-DL.1080p.UNTOUCHED.AVC.DD5.1.ESub-TMV.part2.rar
https://www.heroupload.com/a378d9c8e4715bcf/N.T.R.Kathanayakudu.2019.Telugu.WEB-DL.1080p.UNTOUCHED.AVC.DD5.1.ESub-TMV.part3.rar
https://www.heroupload.com/adb7d846665f1c67/N.T.R.Kathanayakudu.2019.Telugu.WEB-DL.1080p.UNTOUCHED.AVC.DD5.1.ESub-TMV.part4.rar
https://www.heroupload.com/d6061ec2a2d977ab/N.T.R.Kathanayakudu.2019.Telugu.WEB-DL.1080p.UNTOUCHED.AVC.DD5.1.ESub-TMV.part5.rar
https://www.heroupload.com/d7eb042dbb60fc34/N.T.R.Kathanayakudu.2019.Telugu.WEB-DL.1080p.UNTOUCHED.AVC.DD5.1.ESub-TMV.part6.rar
https://www.heroupload.com/2ef631646406c3c1/N.T.R.Kathanayakudu.2019.Telugu.WEB-DL.1080p.UNTOUCHED.AVC.DD5.1.ESub-TMV.part7.rar
https://www.heroupload.com/2ee140882a10a9d7/N.T.R.Kathanayakudu.2019.Telugu.WEB-DL.1080p.UNTOUCHED.AVC.DD5.1.ESub-TMV.part8.rar


Buy Premium From My Links & Support Me

Теги: N

Dear visitor, you are browsing our website as Guest.
We strongly recommend you to register and login to view hidden contents.

Comments:

Add Comments