Set as default Homepage|Bookmark
 
 
» » N.T.R: Kathanayakudu (2019) Telugu - 720p - HDRip - x264 - DD5.1 - ESub-TMV
Advertise

N.T.R: Kathanayakudu (2019) Telugu - 720p - HDRip - x264 - DD5.1 - ESub-TMV

Author: wroser on 8-02-2019, 00:07
N.T.R: Kathanayakudu (2019) Telugu - 720p - HDRip - x264 - DD5.1 - ESub-TMV





Format                                   : Matroska
Format version                           : Version 4
File size                                : 1.39 GiB
Duration                                 : 2 h 46 min
Overall bit rate                         : 1 194 kb/s
Encoded date                             : UTC 2019-02-07 22:05:37
Writing application                      : mkvmerge v29.0.0 ('Like It Or Not') 32-bit
Writing library                          : libebml v1.3.6 + libmatroska v1.4.9

Video
ID                                       : 1
Format                                   : AVC
Format/Info                              : Advanced Video Codec
Format profile                           : High@L3.1
Format settings                          : CABAC / 4 Ref Frames
Format settings, CABAC                   : Yes
Format settings, RefFrames               : 4 frames
Codec ID                                 : V_MPEG4/ISO/AVC
Duration                                 : 2 h 46 min
Bit rate                                 : 1 064 kb/s
Width                                    : 1 280 pixels
Height                                   : 536 pixels
Display aspect ratio                     : 2.40:1
Frame rate mode                          : Constant
Frame rate                               : 24.000 FPS
Color space                              : YUV
Chroma subsampling                       : 4:2:0
Bit depth                                : 8 bits
Scan type                                : Progressive
Bits/(Pixel*Frame)                       : 0.065
Stream size                              : 1.24 GiB (89%)
Writing library                          : x264 core 157 r2935 545de2f
Encoding settings                        : cabac=1 / ref=1 / deblock=1:0:0 / analyse=0x3:0x113 / me=hex / subme=2 / psy=1 / psy_rd=1.00:0.00 / mixed_ref=0 / me_range=16 / chroma_me=1 / trellis=0 / 8x8dct=1 / cqm=0 / deadzone=21,11 / fast_pskip=1 / chroma_qp_offset=0 / threads=17 / lookahead_threads=4 / sliced_threads=0 / nr=0 / decimate=1 / interlaced=0 / bluray_compat=0 / constrained_intra=0 / bframes=3 / b_pyramid=2 / b_adapt=1 / b_bias=0 / direct=1 / weightb=1 / open_gop=0 / weightp=1 / keyint=240 / keyint_min=24 / scenecut=40 / intra_refresh=0 / rc_lookahead=10 / rc=2pass / mbtree=1 / bitrate=1064 / ratetol=1.0 / qcomp=0.60 / qpmin=0 / qpmax=69 / qpstep=4 / cplxblur=20.0 / qblur=0.5 / ip_ratio=1.40 / aq=1:1.00
Language                                 : Telugu
Default                                  : Yes
Forced                                   : No

Audio
ID                                       : 2
Format                                   : AC-3
Format/Info                              : Audio Coding 3
Commercial name                          : Dolby Digital
Codec ID                                 : A_AC3
Duration                                 : 2 h 46 min
Bit rate mode                            : Constant
Bit rate                                 : 128 kb/s
Channel(s)                               : 6 channels
Channel layout                           : L R C LFE Ls Rs
Sampling rate                            : 44.1 kHz
Frame rate                               : 28.711 FPS (1536 SPF)
Bit depth                                : 16 bits
Compression mode                         : Lossy
Stream size                              : 153 MiB (11%)
Language                                 : Telugu
Service kind                             : Complete Main
Default                                  : Yes
Forced                                   : No

Text
ID                                       : 3
Format                                   : UTF-8
Codec ID                                 : S_TEXT/UTF8
Codec ID/Info                            : UTF-8 Plain Text
Duration                                 : 2 h 46 min
Bit rate                                 : 78 b/s
Count of elements                        : 2792
Stream size                              : 95.8 KiB (0%)
Language                                 : English
Default                                  : No
Forced                                   : No



N.T.R: Kathanayakudu (2019) Telugu - 720p - HDRip - x264 - DD5.1 - ESub-TMV


SINGLE DIRECT FAST LINKS


https://www.heroupload.com/758000fd1e7f5afb/NTR.Kathanayakudu.2019.Telugu.HDRip.720p.x264.DD5.1.ESub-TMV.mkv



Buy Premium From My Links & Support Me

Теги: N

Dear visitor, you are browsing our website as Guest.
We strongly recommend you to register and login to view hidden contents.

Comments:

Add Comments