Set as default Homepage|Bookmark
 
 
» » Pandem kodi 2 (2018) Telugu (Org Vers) - 1080p - WEB-DL - UNTOUCHED - AVC - AAC-TMV
Advertise

Pandem kodi 2 (2018) Telugu (Org Vers) - 1080p - WEB-DL - UNTOUCHED - AVC - AAC-TMV

Author: wroser on 7-02-2019, 23:42
Pandem kodi 2 (2018) Telugu (Org Vers) - 1080p - WEB-DL - UNTOUCHED - AVC - AAC-TMV





Format                                   : MPEG-4
Format profile                           : Base Media
Codec ID                                 : isom (isom/iso2/avc1/mp41)
File size                                : 5.72 GiB
Duration                                 : 2 h 35 min
Overall bit rate mode                    : Constant
Overall bit rate                         : 5 252 kb/s
Writing application                      : Lavf57.56.100

Video
ID                                       : 1
Format                                   : AVC
Format/Info                              : Advanced Video Codec
Format profile                           : Baseline@L4
Format settings                          : 1 Ref Frames
Format settings, CABAC                   : No
Format settings, RefFrames               : 1 frame
Codec ID                                 : avc1
Codec ID/Info                            : Advanced Video Coding
Duration                                 : 2 h 35 min
Bit rate mode                            : Constant
Bit rate                                 : 5 120 kb/s
Width                                    : 1 920 pixels
Height                                   : 1 080 pixels
Display aspect ratio                     : 16:9
Frame rate mode                          : Constant
Frame rate                               : 25.000 FPS
Color space                              : YUV
Chroma subsampling                       : 4:2:0
Bit depth                                : 8 bits
Scan type                                : Progressive
Bits/(Pixel*Frame)                       : 0.099
Stream size                              : 5.58 GiB (97%)
Codec configuration box                  : avcC

Audio
ID                                       : 2
Format                                   : AAC LC
Format/Info                              : Advanced Audio Codec Low Complexity
Codec ID                                 : mp4a-40-2
Duration                                 : 2 h 35 min
Bit rate mode                            : Constant
Bit rate                                 : 126 kb/s
Channel(s)                               : 2 channels
Channel layout                           : L R
Sampling rate                            : 44.1 kHz
Frame rate                               : 43.066 FPS (1024 SPF)
Compression mode                         : Lossy
Stream size                              : 140 MiB (2%)
Language                                 : English
Default                                  : Yes
Alternate group                          : 1




Pandem kodi 2 (2018) Telugu (Org Vers) - 1080p - WEB-DL - UNTOUCHED - AVC - AAC-TMV

SINGLE DIRECT FAST LINKS

https://www.heroupload.com/61ad2afce0b756cd/Pandem.kodi.2.2018.Telugu.Org.Vers.WEB-DL.1080p.UNTOUCHED-TMV.mp4


1GB LINKS



https://www.heroupload.com/7561d3d9fa5413dd/Pandem.kodi.2.2018.Telugu.Org.Vers.WEB-DL.1080p.UNTOUCHED-TMV.part1.rar
https://www.heroupload.com/422fe9174e834d02/Pandem.kodi.2.2018.Telugu.Org.Vers.WEB-DL.1080p.UNTOUCHED-TMV.part2.rar
https://www.heroupload.com/e33bf33ffe27c08a/Pandem.kodi.2.2018.Telugu.Org.Vers.WEB-DL.1080p.UNTOUCHED-TMV.part3.rar
https://www.heroupload.com/9b63eea220eb434e/Pandem.kodi.2.2018.Telugu.Org.Vers.WEB-DL.1080p.UNTOUCHED-TMV.part4.rar
https://www.heroupload.com/2ab8958f959121e6/Pandem.kodi.2.2018.Telugu.Org.Vers.WEB-DL.1080p.UNTOUCHED-TMV.part5.rar
https://www.heroupload.com/713db5b46a1c5dda/Pandem.kodi.2.2018.Telugu.Org.Vers.WEB-DL.1080p.UNTOUCHED-TMV.part6.rar



Buy Premium From My Links & Support Me

Теги: Pandem

Dear visitor, you are browsing our website as Guest.
We strongly recommend you to register and login to view hidden contents.

Comments:

Add Comments