Set as default Homepage|Bookmark
 
 
» » Khiladiyon Ka Khiladi (1996) 720p - WEB-HD - x264 - AC3 2.0-BollywoodA2z
Advertise

Khiladiyon Ka Khiladi (1996) 720p - WEB-HD - x264 - AC3 2.0-BollywoodA2z

Author: wroser on 5-02-2019, 23:04
Khiladiyon Ka Khiladi (1996) 720p - WEB-HD - x264 - AC3 2.0-BollywoodA2z



General
Format                      : Matroska
Format version              : Version 4 / Version 2
File size                   : 1.93 GiB
Duration                    : 2 h 43 min
Overall bit rate            : 1 692 kb/s


Video
ID                          : 1
Format                      : AVC
Format/Info                 : Advanced Video Codec
Format profile              : High@L4.1
Format settings             : CABAC / 5 Ref Frames
Format settings, CABAC      : Yes
Format settings, ReFrames   : 5 frames
Codec ID                    : V_MPEG4/ISO/AVC
Duration                    : 2 h 43 min
Bit rate                    : 1 500 kb/s
Width                       : 1 280 pixels
Height                      : 720 pixels
Display aspect ratio        : 16:9
Frame rate mode             : Constant
Frame rate                  : 25.000 FPS
Color space                 : YUV
Chroma subsampling          : 4:2:0
Bit depth                   : 8 bits
Scan type                   : Progressive
Bits/(Pixel*Frame)          : 0.065
Stream size                 : 1.71 GiB (89%)
Title                       : Sun George


Audio
ID                          : 2
Format                      : AC-3
Format/Info                 : Audio Coding 3
Commercial name             : Dolby Digital
Codec ID                    : A_AC3
Duration                    : 2 h 43 min
Bit rate mode               : Constant
Bit rate                    : 192 kb/s
Channel(s)                  : 2 channels
Channel layout              : L R
Sampling rate               : 48.0 kHz
Frame rate                  : 31.250 FPS (1536 SPF)
Bit depth                   : 16 bits
Compression mode            : Lossy
Stream size                 : 224 MiB (11%)
Language                    : Hindi
Service kind                : Complete Main
Default                     : Yes
Forced                      : No 


Khiladiyon Ka Khiladi (1996) 720p - WEB-HD - x264 - AC3 2.0-BollywoodA2zKhiladiyon Ka Khiladi (1996) 720p - WEB-HD - x264 - AC3 2.0-BollywoodA2zKhiladiyon Ka Khiladi (1996) 720p - WEB-HD - x264 - AC3 2.0-BollywoodA2zKhiladiyon Ka Khiladi (1996) 720p - WEB-HD - x264 - AC3 2.0-BollywoodA2zKhiladiyon Ka Khiladi (1996) 720p - WEB-HD - x264 - AC3 2.0-BollywoodA2z


1GB LINKS

https://www.heroupload.com/b6305cde5620f0be/Khiladiyon.Ka.Khiladi.1996.Hindi.720p.WEB-HD.x264.AC3.2.0-BollywoodA2z.mkv




Buy Premium From My Links & Support Me

Теги: Khiladiyon

Dear visitor, you are browsing our website as Guest.
We strongly recommend you to register and login to view hidden contents.

Comments:

Add Comments